High Fidelity S01E04

TV Series
High Fidelity S01E04

High Fidelity S01E04
WEBRip | MKV | 3840x2160 | English | H265 @ 15596 kbps | E-AC-3 @ 256 kbps | 32 min 6 s | 3.56 GiB
Subtitles: Español, English
Genre: Comedy


Rob Brooks, a female record store owner in the rapidly gentrified neighborhood of Crown Heights, Brooklyn revisit past relationships through music and pop culture, while trying to get over her one true love.

dd37359454e804a8dc8e56f5982d188e.mkv (3.6 GB)



General
Unique ID : 21271090455496831195247989080077058778 (0x1000A9BABF88BAB2AA8751D014B742DA)
Complete name : ./dd37359454e804a8dc8e56f5982d188e.mkv
Format : Matroska
Format version : Version 4 / Version 2
File size : 3.56 GiB
Duration : 32 min 6 s
Overall bit rate : 15.9 Mb/s
Encoded date : UTC 2020-02-14 07:04:29
Writing application : mkvmerge v41.0.0 ('Smarra') 64-bit
Writing library : libebml v1.3.9 + libmatroska v1.5.2

Video
ID : 1
Format : HEVC
Format/Info : High Efficiency Video Coding
Format profile : Main 10@L5.1@Main
Codec ID : V_MPEGH/ISO/HEVC
Duration : 32 min 6 s
Bit rate : 15.6 Mb/s
Width : 3 840 pixels
Height : 2 160 pixels
Display aspect ratio : 16:9
Frame rate mode : Constant
Frame rate : 23.976 (24000/1001) FPS
Color space : YUV
Chroma subsampling : 4:2:0
Bit depth : 10 bits
Bits/(Pixel*Frame) : 0.078
Stream size : 3.50 GiB (98%)
Language : English
Default : Yes
Forced : No

Audio
ID : 2
Format : E-AC-3
Format/Info : Enhanced Audio Coding 3
Format settings, Endianness : Big
Codec ID : A_EAC3
Duration : 32 min 6 s
Bit rate mode : Constant
Bit rate : 256 kb/s
Channel(s) : 6 channels
Channel positions : Front: L C R, Side: L R, LFE
Sampling rate : 48.0 kHz
Frame rate : 187.500 FPS (256 SPF)
Compression mode : Lossy
Stream size : 58.8 MiB (2%)
Language : English
Service kind : Complete Main
Default : Yes
Forced : No

Text #1
ID : 3
Format : UTF-8
Codec ID : S_TEXT/UTF8
Codec ID/Info : UTF-8 Plain Text
Duration : 31 min 54 s
Bit rate : 109 b/s
Count of elements : 767
Stream size : 25.5 KiB (0%)
Title : English
Language : English
Default : No
Forced : No

Text #2
ID : 4
Format : UTF-8
Codec ID : S_TEXT/UTF8
Codec ID/Info : UTF-8 Plain Text
Duration : 31 min 6 s
Bit rate : 108 b/s
Count of elements : 742
Stream size : 24.8 KiB (0%)
Title : Spanish; Castilian
Language : Spanish
Default : No
Forced : No





High Fidelity S01E04


High Fidelity S01E04


High Fidelity S01E04


High Fidelity S01E04


High Fidelity S01E04