High Fidelity S01E04

TV Series
High Fidelity S01E04

High Fidelity S01E04
WEBRip | MKV | 1280x720 | English | H264 @ 2227 kbps | E-AC-3 @ 256 kbps | 32 min 6 s | 571 MiB
Subtitles: Español, English
Genre: Comedy


Rob Brooks, a female record store owner in the rapidly gentrified neighborhood of Crown Heights, Brooklyn revisit past relationships through music and pop culture, while trying to get over her one true love.

ff689c268d33aa5bb98ff7650a076db5.mkv (570.8 MB)



General
Unique ID : 256476656789535640163541702898295726552 (0xC0F39B7A49F0BC355F5AC6291E6361D8)
Complete name : ./ff689c268d33aa5bb98ff7650a076db5.mkv
Format : Matroska
Format version : Version 4 / Version 2
File size : 571 MiB
Duration : 32 min 6 s
Overall bit rate : 2 486 kb/s
Encoded date : UTC 2020-02-14 05:04:35
Writing application : mkvmerge v41.0.0 ('Smarra') 64-bit
Writing library : libebml v1.3.9 + libmatroska v1.5.2

Video
ID : 1
Format : AVC
Format/Info : Advanced Video Codec
Format profile : High@L3.1
Format settings : CABAC / 5 Ref Frames
Format settings, CABAC : Yes
Format settings, RefFrames : 5 frames
Codec ID : V_MPEG4/ISO/AVC
Duration : 32 min 6 s
Bit rate : 2 228 kb/s
Width : 1 280 pixels
Height : 720 pixels
Display aspect ratio : 16:9
Frame rate mode : Constant
Frame rate : 23.976 (24000/1001) FPS
Color space : YUV
Chroma subsampling : 4:2:0
Bit depth : 8 bits
Scan type : Progressive
Bits/(Pixel*Frame) : 0.101
Stream size : 512 MiB (90%)
Language : English
Default : Yes
Forced : No

Audio
ID : 2
Format : E-AC-3
Format/Info : Enhanced Audio Coding 3
Format settings, Endianness : Big
Codec ID : A_EAC3
Duration : 32 min 6 s
Bit rate mode : Constant
Bit rate : 256 kb/s
Channel(s) : 6 channels
Channel positions : Front: L C R, Side: L R, LFE
Sampling rate : 48.0 kHz
Frame rate : 187.500 FPS (256 SPF)
Compression mode : Lossy
Stream size : 58.8 MiB (10%)
Language : English
Service kind : Complete Main
Default : Yes
Forced : No

Text #1
ID : 3
Format : UTF-8
Codec ID : S_TEXT/UTF8
Codec ID/Info : UTF-8 Plain Text
Duration : 31 min 54 s
Bit rate : 109 b/s
Count of elements : 767
Stream size : 25.5 KiB (0%)
Title : English
Language : English
Default : No
Forced : No

Text #2
ID : 4
Format : UTF-8
Codec ID : S_TEXT/UTF8
Codec ID/Info : UTF-8 Plain Text
Duration : 31 min 6 s
Bit rate : 108 b/s
Count of elements : 742
Stream size : 24.8 KiB (0%)
Title : Spanish; Castilian
Language : Spanish
Default : No
Forced : No





High Fidelity S01E04


High Fidelity S01E04


High Fidelity S01E04


High Fidelity S01E04


High Fidelity S01E04