High Fidelity S01E05

TV Series
High Fidelity S01E05

High Fidelity S01E05
WEB-DL | MKV | 3840x2160 | English | H265 @ 15462 kbps | E-AC-3 @ 256 kbps | 29 min 3 s | 3.19 GiB
Subtitles: Español, English
Genre: Comedy


Rob Brooks, a female record store owner in the rapidly gentrified neighborhood of Crown Heights, Brooklyn revisit past relationships through music and pop culture, while trying to get over her one true love.

84a502a2df6e5bf3bdab0f6281ec6a44.mkv (3.2 GB)



General
Unique ID : 200086943552022172310528714552829254374 (0x968757F69D18C580A30FB911C18F9AE6)
Complete name : ./84a502a2df6e5bf3bdab0f6281ec6a44.mkv
Format : Matroska
Format version : Version 4 / Version 2
File size : 3.19 GiB
Duration : 29 min 3 s
Overall bit rate : 15.7 Mb/s
Encoded date : UTC 2020-02-14 06:15:42
Writing application : mkvmerge v38.0.0 ('The Silent Type') 64-bit
Writing library : libebml v1.3.9 + libmatroska v1.5.2

Video
ID : 1
Format : HEVC
Format/Info : High Efficiency Video Coding
Format profile : Main 10@L5.1@Main
Codec ID : V_MPEGH/ISO/HEVC
Duration : 29 min 2 s
Bit rate : 15.5 Mb/s
Width : 3 840 pixels
Height : 2 160 pixels
Display aspect ratio : 16:9
Frame rate mode : Constant
Frame rate : 23.976 (24000/1001) FPS
Color space : YUV
Chroma subsampling : 4:2:0
Bit depth : 10 bits
Bits/(Pixel*Frame) : 0.078
Stream size : 3.14 GiB (98%)
Default : Yes
Forced : No

Audio
ID : 2
Format : E-AC-3
Format/Info : Enhanced Audio Coding 3
Format settings, Endianness : Big
Codec ID : A_EAC3
Duration : 29 min 3 s
Bit rate mode : Constant
Bit rate : 256 kb/s
Channel(s) : 6 channels
Channel positions : Front: L C R, Side: L R, LFE
Sampling rate : 48.0 kHz
Frame rate : 187.500 FPS (256 SPF)
Compression mode : Lossy
Stream size : 53.2 MiB (2%)
Language : English
Service kind : Complete Main
Default : Yes
Forced : No

Text #1
ID : 3
Format : UTF-8
Codec ID : S_TEXT/UTF8
Codec ID/Info : UTF-8 Plain Text
Duration : 28 min 50 s
Bit rate : 106 b/s
Count of elements : 689
Stream size : 22.6 KiB (0%)
Language : English
Default : No
Forced : No

Text #2
ID : 4
Format : UTF-8
Codec ID : S_TEXT/UTF8
Codec ID/Info : UTF-8 Plain Text
Duration : 28 min 5 s
Bit rate : 110 b/s
Count of elements : 686
Stream size : 22.7 KiB (0%)
Language : Spanish
Default : No
Forced : No





High Fidelity S01E05


High Fidelity S01E05


High Fidelity S01E05


High Fidelity S01E05


High Fidelity S01E05