High Fidelity S01E07

TV Series
High Fidelity S01E07

High Fidelity S01E07
WEB-DL | MKV | 3840x2160 | English | H265 @ 15441 kbps | E-AC-3 @ 256 kbps | 33 min 27 s | 3.67 GiB
Subtitles: Español, English
Genre: Comedy


Rob Brooks, a female record store owner in the rapidly gentrified neighborhood of Crown Heights, Brooklyn revisit past relationships through music and pop culture, while trying to get over her one true love.

fd7286c0a0e5441f1e9dcfda7923e883.mkv (3.7 GB)



General
Unique ID : 194862603383226816176484037420726002496 (0x92992C1B2D873DA5995B6928E51EA340)
Complete name : ./fd7286c0a0e5441f1e9dcfda7923e883.mkv
Format : Matroska
Format version : Version 4 / Version 2
File size : 3.67 GiB
Duration : 33 min 27 s
Overall bit rate : 15.7 Mb/s
Encoded date : UTC 2020-02-14 06:20:06
Writing application : mkvmerge v38.0.0 ('The Silent Type') 64-bit
Writing library : libebml v1.3.9 + libmatroska v1.5.2

Video
ID : 1
Format : HEVC
Format/Info : High Efficiency Video Coding
Format profile : Main 10@L5.1@Main
Codec ID : V_MPEGH/ISO/HEVC
Duration : 33 min 27 s
Bit rate : 15.4 Mb/s
Width : 3 840 pixels
Height : 2 160 pixels
Display aspect ratio : 16:9
Frame rate mode : Constant
Frame rate : 23.976 (24000/1001) FPS
Color space : YUV
Chroma subsampling : 4:2:0
Bit depth : 10 bits
Bits/(Pixel*Frame) : 0.078
Stream size : 3.61 GiB (98%)
Default : Yes
Forced : No

Audio
ID : 2
Format : E-AC-3
Format/Info : Enhanced Audio Coding 3
Format settings, Endianness : Big
Codec ID : A_EAC3
Duration : 33 min 27 s
Bit rate mode : Constant
Bit rate : 256 kb/s
Channel(s) : 6 channels
Channel positions : Front: L C R, Side: L R, LFE
Sampling rate : 48.0 kHz
Frame rate : 187.500 FPS (256 SPF)
Compression mode : Lossy
Stream size : 61.3 MiB (2%)
Language : English
Service kind : Complete Main
Default : Yes
Forced : No

Text #1
ID : 3
Format : UTF-8
Codec ID : S_TEXT/UTF8
Codec ID/Info : UTF-8 Plain Text
Duration : 33 min 17 s
Bit rate : 109 b/s
Count of elements : 833
Stream size : 26.8 KiB (0%)
Language : English
Default : No
Forced : No

Text #2
ID : 4
Format : UTF-8
Codec ID : S_TEXT/UTF8
Codec ID/Info : UTF-8 Plain Text
Duration : 32 min 27 s
Bit rate : 110 b/s
Count of elements : 860
Stream size : 26.3 KiB (0%)
Language : Spanish
Default : No
Forced : No





High Fidelity S01E07


High Fidelity S01E07


High Fidelity S01E07


High Fidelity S01E07


High Fidelity S01E07