High Fidelity S01E09

TV Series
High Fidelity S01E09

High Fidelity S01E09
WEBRip | MKV | 1280x720 | English | H264 @ 1968 kbps | E-AC-3 @ 256 kbps | 28 min 53 s | 460 MiB
Genre: Comedy


Rob Brooks, a female record store owner in the rapidly gentrified neighborhood of Crown Heights, Brooklyn revisit past relationships through music and pop culture, while trying to get over her one true love.

35f0ed9eee23b98fa9fb26736332f38a.mkv (459.9 MB)



General
Unique ID : 289809774764785044100125062408402151592 (0xDA075514349DDFEDAC7D3C1F4320A8A8)
Complete name : ./35f0ed9eee23b98fa9fb26736332f38a.mkv
Format : Matroska
Format version : Version 4 / Version 2
File size : 460 MiB
Duration : 28 min 53 s
Overall bit rate : 2 226 kb/s
Encoded date : UTC 2020-02-14 05:12:18
Writing application : mkvmerge v41.0.0 ('Smarra') 64-bit
Writing library : libebml v1.3.9 + libmatroska v1.5.2

Video
ID : 1
Format : AVC
Format/Info : Advanced Video Codec
Format profile : High@L3.1
Format settings : CABAC / 5 Ref Frames
Format settings, CABAC : Yes
Format settings, RefFrames : 5 frames
Codec ID : V_MPEG4/ISO/AVC
Duration : 28 min 53 s
Bit rate : 1 968 kb/s
Width : 1 280 pixels
Height : 720 pixels
Display aspect ratio : 16:9
Frame rate mode : Constant
Frame rate : 23.976 (24000/1001) FPS
Color space : YUV
Chroma subsampling : 4:2:0
Bit depth : 8 bits
Scan type : Progressive
Bits/(Pixel*Frame) : 0.089
Stream size : 407 MiB (88%)
Language : English
Default : Yes
Forced : No

Audio
ID : 2
Format : E-AC-3
Format/Info : Enhanced Audio Coding 3
Format settings, Endianness : Big
Codec ID : A_EAC3
Duration : 28 min 53 s
Bit rate mode : Constant
Bit rate : 256 kb/s
Channel(s) : 6 channels
Channel positions : Front: L C R, Side: L R, LFE
Sampling rate : 48.0 kHz
Frame rate : 187.500 FPS (256 SPF)
Compression mode : Lossy
Stream size : 52.9 MiB (12%)
Language : English
Service kind : Complete Main
Default : Yes
Forced : No





High Fidelity S01E09


High Fidelity S01E09


High Fidelity S01E09


High Fidelity S01E09


High Fidelity S01E09