Hollywood S01E03

TV Series
Hollywood S01E03

Hollywood S01E03
WEBRip | MKV | 1920x1080 | English | H265 @ 5604 kbps | E-AC-3 @ 640 kbps | 57 min 31 s | 2.51 GiB
Subtitles: ภาษาไทย, Français, tiếng Việt, Español, Magyar, 日本語, עברית, 한국어, Русский, Ελληνικά, Nederlands, Dansk, Bahasa Indonesia, Bokmål, 中文, Suomi, Polski, Türkçe, English, Română, العربية, Deutsch, Svenska, Italiano, Português, Čeština
Genre: Drama


A group of aspiring actors and filmmakers in post-World War II Hollywood try to make it big — no matter the cost.

6376f5047a1fc8bba3f410c910674f4a.mkv (2.5 GB)



General
Unique ID : 13732161400330126577944209120302574152 (0xA54B7D45DD21DCC0F7761B75E75AA48)
Complete name : ./6376f5047a1fc8bba3f410c910674f4a.mkv
Format : Matroska
Format version : Version 4 / Version 2
File size : 2.51 GiB
Duration : 57 min 31 s
Overall bit rate : 6 243 kb/s
Encoded date : UTC 2020-05-01 08:14:12
Writing application : mkvmerge v44.0.0 ('Domino') 64-bit
Writing library : libebml v1.3.10 + libmatroska v1.5.2

Video
ID : 1
Format : HEVC
Format/Info : High Efficiency Video Coding
Format profile : Main 10@L4@Main
Codec ID : V_MPEGH/ISO/HEVC
Duration : 57 min 26 s
Bit rate : 5 605 kb/s
Width : 1 920 pixels
Height : 1 080 pixels
Display aspect ratio : 16:9
Frame rate mode : Constant
Frame rate : 23.976 (24000/1001) FPS
Color space : YUV
Chroma subsampling : 4:2:0 (Type 2)
Bit depth : 10 bits
Bits/(Pixel*Frame) : 0.113
Stream size : 2.25 GiB (90%)
Default : Yes
Forced : No
Color range : Limited
Color primaries : BT.2020
Transfer characteristics : PQ
Matrix coefficients : BT.2020 non-constant
Mastering display color primaries : R: x=0.680000 y=0.320000, G: x=0.265000 y=0.690000, B: x=0.150000 y=0.060000, White point: x=0.312700 y=0.329000
Mastering display luminance : min: 0.0001 cd/m2, max: 1000.0000 cd/m2
Maximum Content Light Level : 10000 cd/m2
Maximum Frame-Average Light Level : 96 cd/m2

Audio
ID : 2
Format : E-AC-3
Format/Info : Enhanced Audio Coding 3
Format settings, Endianness : Big
Codec ID : A_EAC3
Duration : 57 min 31 s
Bit rate mode : Constant
Bit rate : 640 kb/s
Channel(s) : 6 channels
Channel positions : Front: L C R, Side: L R, LFE
Sampling rate : 48.0 kHz
Frame rate : 187.500 FPS (256 SPF)
Compression mode : Lossy
Stream size : 263 MiB (10%)
Title : English
Language : English
Service kind : Complete Main
Default : Yes
Forced : No

Text #1
ID : 3
Format : UTF-8
Codec ID : S_TEXT/UTF8
Codec ID/Info : UTF-8 Plain Text
Duration : 56 min 0 s
Bit rate : 83 b/s
Count of elements : 1058
Stream size : 34.3 KiB (0%)
Title : English
Language : English
Default : No
Forced : No

Text #2
ID : 4
Format : UTF-8
Codec ID : S_TEXT/UTF8
Codec ID/Info : UTF-8 Plain Text
Duration : 57 min 4 s
Bit rate : 117 b/s
Count of elements : 975
Stream size : 49.1 KiB (0%)
Title : Arabic
Language : Arabic
Default : No
Forced : No

Text #3
ID : 5
Format : UTF-8
Codec ID : S_TEXT/UTF8
Codec ID/Info : UTF-8 Plain Text
Duration : 57 min 4 s
Bit rate : 78 b/s
Count of elements : 968
Stream size : 32.9 KiB (0%)
Title : Simplified Chinese
Language : Chinese
Default : No
Forced : No

Text #4
ID : 6
Format : UTF-8
Codec ID : S_TEXT/UTF8
Codec ID/Info : UTF-8 Plain Text
Duration : 57 min 17 s
Bit rate : 69 b/s
Count of elements : 971
Stream size : 29.2 KiB (0%)
Title : Traditional Chinese
Language : Chinese
Default : No
Forced : No

Text #5
ID : 7
Format : UTF-8
Codec ID : S_TEXT/UTF8
Codec ID/Info : UTF-8 Plain Text
Duration : 57 min 14 s
Bit rate : 70 b/s
Count of elements : 877
Stream size : 29.4 KiB (0%)
Title : Czech
Language : Czech
Default : No
Forced : No

Text #6
ID : 8
Format : UTF-8
Codec ID : S_TEXT/UTF8
Codec ID/Info : UTF-8 Plain Text
Duration : 57 min 4 s
Bit rate : 67 b/s
Count of elements : 881
Stream size : 28.2 KiB (0%)
Title : Danish
Language : Danish
Default : No
Forced : No

Text #7
ID : 9
Format : UTF-8
Codec ID : S_TEXT/UTF8
Codec ID/Info : UTF-8 Plain Text
Duration : 57 min 12 s
Bit rate : 63 b/s
Count of elements : 730
Stream size : 26.5 KiB (0%)
Title : Dutch
Language : Dutch
Default : No
Forced : No

Text #8
ID : 10
Format : UTF-8
Codec ID : S_TEXT/UTF8
Codec ID/Info : UTF-8 Plain Text
Duration : 57 min 4 s
Bit rate : 66 b/s
Count of elements : 869
Stream size : 27.8 KiB (0%)
Title : Finnish
Language : Finnish
Default : No
Forced : No

Text #9
ID : 11
Format : UTF-8
Codec ID : S_TEXT/UTF8
Codec ID/Info : UTF-8 Plain Text
Duration : 57 min 12 s
Bit rate : 66 b/s
Count of elements : 937
Stream size : 27.9 KiB (0%)
Title : French
Language : French
Default : No
Forced : No

Text #10
ID : 12
Format : UTF-8
Codec ID : S_TEXT/UTF8
Codec ID/Info : UTF-8 Plain Text
Duration : 57 min 12 s
Bit rate : 68 b/s
Count of elements : 880
Stream size : 28.6 KiB (0%)
Title : German
Language : German
Default : No
Forced : No

Text #11
ID : 13
Format : UTF-8
Codec ID : S_TEXT/UTF8
Codec ID/Info : UTF-8 Plain Text
Duration : 57 min 4 s
Bit rate : 109 b/s
Count of elements : 923
Stream size : 45.6 KiB (0%)
Title : Greek
Language : Greek
Default : No
Forced : No

Text #12
ID : 14
Format : UTF-8
Codec ID : S_TEXT/UTF8
Codec ID/Info : UTF-8 Plain Text
Duration : 56 min 5 s
Bit rate : 109 b/s
Count of elements : 988
Stream size : 45.0 KiB (0%)
Title : Hebrew
Language : Hebrew
Default : No
Forced : No

Text #13
ID : 15
Format : UTF-8
Codec ID : S_TEXT/UTF8
Codec ID/Info : UTF-8 Plain Text
Duration : 57 min 4 s
Bit rate : 69 b/s
Count of elements : 967
Stream size : 29.0 KiB (0%)
Title : Hungarian
Language : Hungarian
Default : No
Forced : No

Text #14
ID : 16
Format : UTF-8
Codec ID : S_TEXT/UTF8
Codec ID/Info : UTF-8 Plain Text
Duration : 57 min 4 s
Bit rate : 68 b/s
Count of elements : 952
Stream size : 28.6 KiB (0%)
Title : Indonesian
Language : Indonesian
Default : No
Forced : No

Text #15
ID : 17
Format : UTF-8
Codec ID : S_TEXT/UTF8
Codec ID/Info : UTF-8 Plain Text
Duration : 57 min 12 s
Bit rate : 66 b/s
Count of elements : 913
Stream size : 28.0 KiB (0%)
Title : Italian
Language : Italian
Default : No
Forced : No

Text #16
ID : 18
Format : UTF-8
Codec ID : S_TEXT/UTF8
Codec ID/Info : UTF-8 Plain Text
Duration : 57 min 15 s
Bit rate : 62 b/s
Count of elements : 814
Stream size : 26.4 KiB (0%)
Title : Japanese
Language : Japanese
Default : No
Forced : No

Text #17
ID : 19
Format : UTF-8
Codec ID : S_TEXT/UTF8
Codec ID/Info : UTF-8 Plain Text
Duration : 57 min 12 s
Bit rate : 90 b/s
Count of elements : 961
Stream size : 38.0 KiB (0%)
Title : Korean
Language : Korean
Default : No
Forced : No

Text #18
ID : 20
Format : UTF-8
Codec ID : S_TEXT/UTF8
Codec ID/Info : UTF-8 Plain Text
Duration : 57 min 4 s
Bit rate : 69 b/s
Count of elements : 850
Stream size : 28.9 KiB (0%)
Title : Norwegian
Language : Norwegian Bokmal
Default : No
Forced : No

Text #19
ID : 21
Format : UTF-8
Codec ID : S_TEXT/UTF8
Codec ID/Info : UTF-8 Plain Text
Duration : 57 min 12 s
Bit rate : 60 b/s
Count of elements : 961
Stream size : 25.3 KiB (0%)
Title : Polish
Language : Polish
Default : No
Forced : No

Text #20
ID : 22
Format : UTF-8
Codec ID : S_TEXT/UTF8
Codec ID/Info : UTF-8 Plain Text
Duration : 57 min 4 s
Bit rate : 69 b/s
Count of elements : 946
Stream size : 29.1 KiB (0%)
Title : Portuguese
Language : Portuguese
Default : No
Forced : No

Text #21
ID : 23
Format : UTF-8
Codec ID : S_TEXT/UTF8
Codec ID/Info : UTF-8 Plain Text
Duration : 57 min 4 s
Bit rate : 65 b/s
Count of elements : 931
Stream size : 27.2 KiB (0%)
Title : Brazilian Portuguese
Language : Portuguese
Default : No
Forced : No

Text #22
ID : 24
Format : UTF-8
Codec ID : S_TEXT/UTF8
Codec ID/Info : UTF-8 Plain Text
Duration : 57 min 4 s
Bit rate : 70 b/s
Count of elements : 961
Stream size : 29.5 KiB (0%)
Title : Romanian
Language : Romanian
Default : No
Forced : No

Text #23
ID : 25
Format : UTF-8
Codec ID : S_TEXT/UTF8
Codec ID/Info : UTF-8 Plain Text
Duration : 57 min 12 s
Bit rate : 113 b/s
Count of elements : 707
Stream size : 47.6 KiB (0%)
Title : Russian
Language : Russian
Default : No
Forced : No

Text #24
ID : 26
Format : UTF-8
Codec ID : S_TEXT/UTF8
Codec ID/Info : UTF-8 Plain Text
Duration : 57 min 12 s
Bit rate : 61 b/s
Count of elements : 987
Stream size : 25.7 KiB (0%)
Title : Latin America Spanish
Language : Spanish
Default : No
Forced : No

Text #25
ID : 27
Format : UTF-8
Codec ID : S_TEXT/UTF8
Codec ID/Info : UTF-8 Plain Text
Duration : 57 min 12 s
Bit rate : 63 b/s
Count of elements : 916
Stream size : 26.8 KiB (0%)
Title : European Spanish
Language : Spanish
Default : No
Forced : No

Text #26
ID : 28
Format : UTF-8
Codec ID : S_TEXT/UTF8
Codec ID/Info : UTF-8 Plain Text
Duration : 57 min 4 s
Bit rate : 67 b/s
Count of elements : 722
Stream size : 28.0 KiB (0%)
Title : Swedish
Language : Swedish
Default : No
Forced : No

Text #27
ID : 29
Format : UTF-8
Codec ID : S_TEXT/UTF8
Codec ID/Info : UTF-8 Plain Text
Duration : 57 min 4 s
Bit rate : 184 b/s
Count of elements : 970
Stream size : 77.1 KiB (0%)
Title : Thai
Language : Thai
Default : No
Forced : No

Text #28
ID : 30
Format : UTF-8
Codec ID : S_TEXT/UTF8
Codec ID/Info : UTF-8 Plain Text
Duration : 55 min 56 s
Bit rate : 66 b/s
Count of elements : 836
Stream size : 27.1 KiB (0%)
Title : Turkish
Language : Turkish
Default : No
Forced : No

Text #29
ID : 31
Format : UTF-8
Codec ID : S_TEXT/UTF8
Codec ID/Info : UTF-8 Plain Text
Duration : 55 min 58 s
Bit rate : 96 b/s
Count of elements : 937
Stream size : 39.7 KiB (0%)
Title : Vietnamese
Language : Vietnamese
Default : No
Forced : No





Hollywood S01E03


Hollywood S01E03


Hollywood S01E03


Hollywood S01E03


Hollywood S01E03