Homecoming S02E01

TV Series
Homecoming S02E01

Homecoming S02E01
WEBRip | MKV | 3840x2160 | English | H265 @ 14167 kbps | E-AC-3 @ 640 kbps | 31 min 5 s | 3.22 GiB
Subtitles: ภาษาไทย, Français, Español, 日本語, עברית, 한국어, Русский, Nederlands, Dansk, Bahasa Indonesia, Bokmål, 中文, Suomi, Polski, Türkçe, English, हिन्दी, العربية, Deutsch, Svenska, Italiano, Português
Genre: Drama


Heidi Bergman is a caseworker at Homecoming, a Geist Group facility helping soldiers transition to civilian life. Years later she has started a new life, living with her mother and working as a waitress, when a Department of Defense auditor questions why she left the Homecoming facility. Heidi quickly realizes that there's a whole other story behind the story she's been telling herself.

8d7fa413c68cc323c8776b46cbbc0c8d.mkv (3.2 GB)



General
Unique ID : 133080754483311120071668406030266062012 (0x641E6BC72FEC6055CEDA824AD678D4BC)
Complete name : ./8d7fa413c68cc323c8776b46cbbc0c8d.mkv
Format : Matroska
Format version : Version 4 / Version 2
File size : 3.22 GiB
Duration : 31 min 5 s
Overall bit rate : 14.8 Mb/s
Encoded date : UTC 2020-05-22 02:40:54
Writing application : mkvmerge v44.0.0 ('Domino') 64-bit
Writing library : libebml v1.3.10 + libmatroska v1.5.2

Video
ID : 1
Format : HEVC
Format/Info : High Efficiency Video Coding
Format profile : Main 10@L5@Main
Codec ID : V_MPEGH/ISO/HEVC
Duration : 31 min 5 s
Bit rate : 14.2 Mb/s
Width : 3 840 pixels
Height : 2 160 pixels
Display aspect ratio : 16:9
Frame rate mode : Constant
Frame rate : 23.976 (24000/1001) FPS
Standard : NTSC
Color space : YUV
Chroma subsampling : 4:2:0 (Type 2)
Bit depth : 10 bits
Bits/(Pixel*Frame) : 0.071
Stream size : 3.08 GiB (96%)
Default : Yes
Forced : No
Color range : Limited
Color primaries : BT.2020
Transfer characteristics : PQ
Matrix coefficients : BT.2020 non-constant
Mastering display color primaries : R: x=0.680000 y=0.320000, G: x=0.265000 y=0.690000, B: x=0.150000 y=0.060000, White point: x=0.312700 y=0.329000
Mastering display luminance : min: 0.0001 cd/m2, max: 1000.0000 cd/m2
Maximum Content Light Level : 1001 cd/m2
Maximum Frame-Average Light Level : 465 cd/m2

Audio
ID : 2
Format : E-AC-3
Format/Info : Enhanced Audio Coding 3
Format settings, Endianness : Big
Codec ID : A_EAC3
Duration : 31 min 5 s
Bit rate mode : Constant
Bit rate : 640 kb/s
Channel(s) : 6 channels
Channel positions : Front: L C R, Side: L R, LFE
Sampling rate : 48.0 kHz
Frame rate : 187.500 FPS (256 SPF)
Compression mode : Lossy
Stream size : 142 MiB (4%)
Title : English
Language : English
Service kind : Complete Main
Default : Yes
Forced : No

Text #1
ID : 3
Format : UTF-8
Codec ID : S_TEXT/UTF8
Codec ID/Info : UTF-8 Plain Text
Duration : 28 min 12 s
Bit rate : 57 b/s
Count of elements : 450
Stream size : 11.9 KiB (0%)
Title : English [SDH]
Language : English
Default : No
Forced : No

Text #2
ID : 4
Format : UTF-8
Codec ID : S_TEXT/UTF8
Codec ID/Info : UTF-8 Plain Text
Duration : 26 min 58 s
Bit rate : 84 b/s
Count of elements : 334
Stream size : 16.6 KiB (0%)
Title : Arabic
Language : Arabic
Default : No
Forced : No

Text #3
ID : 5
Format : UTF-8
Codec ID : S_TEXT/UTF8
Codec ID/Info : UTF-8 Plain Text
Duration : 26 min 58 s
Bit rate : 48 b/s
Count of elements : 330
Stream size : 9.61 KiB (0%)
Title : Danish
Language : Danish
Default : No
Forced : No

Text #4
ID : 6
Format : UTF-8
Codec ID : S_TEXT/UTF8
Codec ID/Info : UTF-8 Plain Text
Duration : 26 min 58 s
Bit rate : 44 b/s
Count of elements : 243
Stream size : 8.70 KiB (0%)
Title : German
Language : German
Default : No
Forced : No

Text #5
ID : 7
Format : UTF-8
Codec ID : S_TEXT/UTF8
Codec ID/Info : UTF-8 Plain Text
Duration : 26 min 58 s
Bit rate : 47 b/s
Count of elements : 327
Stream size : 9.32 KiB (0%)
Title : European Spanish
Language : Spanish
Default : No
Forced : No

Text #6
ID : 8
Format : UTF-8
Codec ID : S_TEXT/UTF8
Codec ID/Info : UTF-8 Plain Text
Duration : 26 min 58 s
Bit rate : 48 b/s
Count of elements : 333
Stream size : 9.49 KiB (0%)
Title : Spanish
Language : Spanish
Default : No
Forced : No

Text #7
ID : 9
Format : UTF-8
Codec ID : S_TEXT/UTF8
Codec ID/Info : UTF-8 Plain Text
Duration : 26 min 58 s
Bit rate : 46 b/s
Count of elements : 332
Stream size : 9.13 KiB (0%)
Title : Finnish
Language : Finnish
Default : No
Forced : No

Text #8
ID : 10
Format : UTF-8
Codec ID : S_TEXT/UTF8
Codec ID/Info : UTF-8 Plain Text
Duration : 26 min 58 s
Bit rate : 45 b/s
Count of elements : 320
Stream size : 9.00 KiB (0%)
Title : French
Language : French
Default : No
Forced : No

Text #9
ID : 11
Format : UTF-8
Codec ID : S_TEXT/UTF8
Codec ID/Info : UTF-8 Plain Text
Duration : 26 min 58 s
Bit rate : 72 b/s
Count of elements : 335
Stream size : 14.4 KiB (0%)
Title : Hebrew
Language : Hebrew
Default : No
Forced : No

Text #10
ID : 12
Format : UTF-8
Codec ID : S_TEXT/UTF8
Codec ID/Info : UTF-8 Plain Text
Duration : 26 min 58 s
Bit rate : 131 b/s
Count of elements : 335
Stream size : 26.0 KiB (0%)
Title : Hindi
Language : Hindi
Default : No
Forced : No

Text #11
ID : 13
Format : UTF-8
Codec ID : S_TEXT/UTF8
Codec ID/Info : UTF-8 Plain Text
Duration : 26 min 58 s
Bit rate : 42 b/s
Count of elements : 333
Stream size : 8.32 KiB (0%)
Title : Indonesian
Language : Indonesian
Default : No
Forced : No

Text #12
ID : 14
Format : UTF-8
Codec ID : S_TEXT/UTF8
Codec ID/Info : UTF-8 Plain Text
Duration : 26 min 58 s
Bit rate : 47 b/s
Count of elements : 326
Stream size : 9.36 KiB (0%)
Title : Italian
Language : Italian
Default : No
Forced : No

Text #13
ID : 15
Format : UTF-8
Codec ID : S_TEXT/UTF8
Codec ID/Info : UTF-8 Plain Text
Duration : 26 min 58 s
Bit rate : 37 b/s
Count of elements : 306
Stream size : 7.49 KiB (0%)
Title : Japanese
Language : Japanese
Default : No
Forced : No

Text #14
ID : 16
Format : UTF-8
Codec ID : S_TEXT/UTF8
Codec ID/Info : UTF-8 Plain Text
Duration : 26 min 58 s
Bit rate : 56 b/s
Count of elements : 334
Stream size : 11.2 KiB (0%)
Title : Korean
Language : Korean
Default : No
Forced : No

Text #15
ID : 17
Format : UTF-8
Codec ID : S_TEXT/UTF8
Codec ID/Info : UTF-8 Plain Text
Duration : 26 min 58 s
Bit rate : 44 b/s
Count of elements : 331
Stream size : 8.79 KiB (0%)
Title : Norwegian (Bokmål)
Language : Norwegian Bokmal
Default : No
Forced : No

Text #16
ID : 18
Format : UTF-8
Codec ID : S_TEXT/UTF8
Codec ID/Info : UTF-8 Plain Text
Duration : 26 min 58 s
Bit rate : 42 b/s
Count of elements : 329
Stream size : 8.39 KiB (0%)
Title : Dutch
Language : Dutch
Default : No
Forced : No

Text #17
ID : 19
Format : UTF-8
Codec ID : S_TEXT/UTF8
Codec ID/Info : UTF-8 Plain Text
Duration : 26 min 58 s
Bit rate : 39 b/s
Count of elements : 323
Stream size : 7.84 KiB (0%)
Title : Polish
Language : Polish
Default : No
Forced : No

Text #18
ID : 20
Format : UTF-8
Codec ID : S_TEXT/UTF8
Codec ID/Info : UTF-8 Plain Text
Duration : 26 min 58 s
Bit rate : 42 b/s
Count of elements : 325
Stream size : 8.45 KiB (0%)
Title : Portuguese
Language : Portuguese
Default : No
Forced : No

Text #19
ID : 21
Format : UTF-8
Codec ID : S_TEXT/UTF8
Codec ID/Info : UTF-8 Plain Text
Duration : 26 min 58 s
Bit rate : 47 b/s
Count of elements : 327
Stream size : 9.38 KiB (0%)
Title : Brazilian Portuguese
Language : Portuguese
Default : No
Forced : No

Text #20
ID : 22
Format : UTF-8
Codec ID : S_TEXT/UTF8
Codec ID/Info : UTF-8 Plain Text
Duration : 26 min 58 s
Bit rate : 79 b/s
Count of elements : 328
Stream size : 15.8 KiB (0%)
Title : Russian
Language : Russian
Default : No
Forced : No

Text #21
ID : 23
Format : UTF-8
Codec ID : S_TEXT/UTF8
Codec ID/Info : UTF-8 Plain Text
Duration : 26 min 58 s
Bit rate : 47 b/s
Count of elements : 321
Stream size : 9.40 KiB (0%)
Title : Swedish
Language : Swedish
Default : No
Forced : No

Text #22
ID : 24
Format : UTF-8
Codec ID : S_TEXT/UTF8
Codec ID/Info : UTF-8 Plain Text
Duration : 26 min 58 s
Bit rate : 145 b/s
Count of elements : 335
Stream size : 28.7 KiB (0%)
Title : Tamil
Language : Tamil
Default : No
Forced : No

Text #23
ID : 25
Format : UTF-8
Codec ID : S_TEXT/UTF8
Codec ID/Info : UTF-8 Plain Text
Duration : 26 min 58 s
Bit rate : 135 b/s
Count of elements : 330
Stream size : 26.7 KiB (0%)
Title : Telugu
Language : Telugu
Default : No
Forced : No

Text #24
ID : 26
Format : UTF-8
Codec ID : S_TEXT/UTF8
Codec ID/Info : UTF-8 Plain Text
Duration : 26 min 58 s
Bit rate : 118 b/s
Count of elements : 335
Stream size : 23.3 KiB (0%)
Title : Thai
Language : Thai
Default : No
Forced : No

Text #25
ID : 27
Format : UTF-8
Codec ID : S_TEXT/UTF8
Codec ID/Info : UTF-8 Plain Text
Duration : 26 min 58 s
Bit rate : 44 b/s
Count of elements : 332
Stream size : 8.81 KiB (0%)
Title : Turkish
Language : Turkish
Default : No
Forced : No

Text #26
ID : 28
Format : UTF-8
Codec ID : S_TEXT/UTF8
Codec ID/Info : UTF-8 Plain Text
Duration : 26 min 58 s
Bit rate : 48 b/s
Count of elements : 335
Stream size : 9.50 KiB (0%)
Title : Chinese (Simplified)
Language : Chinese
Default : No
Forced : No

Text #27
ID : 29
Format : UTF-8
Codec ID : S_TEXT/UTF8
Codec ID/Info : UTF-8 Plain Text
Duration : 26 min 58 s
Bit rate : 45 b/s
Count of elements : 335
Stream size : 8.92 KiB (0%)
Title : Chinese (Traditional)
Language : Chinese
Default : No
Forced : No





Homecoming S02E01


Homecoming S02E01


Homecoming S02E01


Homecoming S02E01


Homecoming S02E01