Homecoming S02E06

TV Series
Homecoming S02E06

Homecoming S02E06
WEBRip | MKV | 3840x2160 | English | H265 @ 14043 kbps | E-AC-3 @ 640 kbps | 24 min 3 s | 2.47 GiB
Subtitles: ภาษาไทย, Français, Español, 日本語, עברית, 한국어, Русский, Bahasa Indonesia, Dansk, Nederlands, Bokmål, 中文, Suomi, Polski, Türkçe, English, हिन्दी, العربية, Deutsch, Svenska, Italiano, Português
Genre: Drama


Heidi Bergman is a caseworker at Homecoming, a Geist Group facility helping soldiers transition to civilian life. Years later she has started a new life, living with her mother and working as a waitress, when a Department of Defense auditor questions why she left the Homecoming facility. Heidi quickly realizes that there's a whole other story behind the story she's been telling herself.

6b3af5da888a6213dc38111b77878555.mkv (2.5 GB)



General
Unique ID : 271309915915594715149377530181977964394 (0xCC1C639DD574119C31C06A3E04DCFF6A)
Complete name : ./6b3af5da888a6213dc38111b77878555.mkv
Format : Matroska
Format version : Version 4 / Version 2
File size : 2.47 GiB
Duration : 24 min 3 s
Overall bit rate : 14.7 Mb/s
Encoded date : UTC 2020-05-22 09:40:22
Writing application : mkvmerge v45.0.0 ('Heaven in Pennies') 64-bit
Writing library : libebml v1.3.10 + libmatroska v1.5.2

Video
ID : 1
Format : HEVC
Format/Info : High Efficiency Video Coding
Format profile : Main 10@L5@Main
Codec ID : V_MPEGH/ISO/HEVC
Duration : 24 min 3 s
Bit rate : 14.0 Mb/s
Width : 3 840 pixels
Height : 2 160 pixels
Display aspect ratio : 16:9
Frame rate mode : Constant
Frame rate : 23.976 (24000/1001) FPS
Standard : NTSC
Color space : YUV
Chroma subsampling : 4:2:0 (Type 2)
Bit depth : 10 bits
Bits/(Pixel*Frame) : 0.071
Stream size : 2.36 GiB (96%)
Default : Yes
Forced : No
Color range : Limited
Color primaries : BT.2020
Transfer characteristics : PQ
Matrix coefficients : BT.2020 non-constant
Mastering display color primaries : R: x=0.680000 y=0.320000, G: x=0.265000 y=0.690000, B: x=0.150000 y=0.060000, White point: x=0.312700 y=0.329000
Mastering display luminance : min: 0.0001 cd/m2, max: 1000.0000 cd/m2
Maximum Content Light Level : 1000 cd/m2
Maximum Frame-Average Light Level : 209 cd/m2

Audio
ID : 2
Format : E-AC-3
Format/Info : Enhanced Audio Coding 3
Format settings, Endianness : Big
Codec ID : A_EAC3
Duration : 24 min 3 s
Bit rate mode : Constant
Bit rate : 640 kb/s
Channel(s) : 6 channels
Channel positions : Front: L C R, Side: L R, LFE
Sampling rate : 48.0 kHz
Frame rate : 187.500 FPS (256 SPF)
Compression mode : Lossy
Stream size : 110 MiB (4%)
Title : English
Language : English
Service kind : Complete Main
Default : Yes
Forced : No

Text #1
ID : 3
Format : UTF-8
Codec ID : S_TEXT/UTF8
Codec ID/Info : UTF-8 Plain Text
Duration : 23 min 45 s
Bit rate : 52 b/s
Count of elements : 399
Stream size : 9.15 KiB (0%)
Title : English [SDH]
Language : English
Default : No
Forced : No

Text #2
ID : 4
Format : UTF-8
Codec ID : S_TEXT/UTF8
Codec ID/Info : UTF-8 Plain Text
Duration : 21 min 5 s
Bit rate : 45 b/s
Count of elements : 260
Stream size : 7.03 KiB (0%)
Title : Castilian [Full]
Language : Spanish
Default : No
Forced : No

Text #3
ID : 5
Format : UTF-8
Codec ID : S_TEXT/UTF8
Codec ID/Info : UTF-8 Plain Text
Duration : 21 min 5 s
Bit rate : 45 b/s
Count of elements : 261
Stream size : 6.99 KiB (0%)
Title : Spanish [Full]
Language : Spanish
Default : No
Forced : No

Text #4
ID : 6
Format : UTF-8
Codec ID : S_TEXT/UTF8
Codec ID/Info : UTF-8 Plain Text
Duration : 20 min 55 s
Bit rate : 45 b/s
Count of elements : 261
Stream size : 6.93 KiB (0%)
Title : French [Full]
Language : French
Default : No
Forced : No

Text #5
ID : 7
Format : UTF-8
Codec ID : S_TEXT/UTF8
Codec ID/Info : UTF-8 Plain Text
Duration : 19 min 52 s
Bit rate : 48 b/s
Count of elements : 192
Stream size : 7.13 KiB (0%)
Title : German [Full]
Language : German
Default : No
Forced : No

Text #6
ID : 8
Format : UTF-8
Codec ID : S_TEXT/UTF8
Codec ID/Info : UTF-8 Plain Text
Duration : 20 min 55 s
Bit rate : 47 b/s
Count of elements : 259
Stream size : 7.24 KiB (0%)
Title : Italian [Full]
Language : Italian
Default : No
Forced : No

Text #7
ID : 9
Format : UTF-8
Codec ID : S_TEXT/UTF8
Codec ID/Info : UTF-8 Plain Text
Duration : 20 min 55 s
Bit rate : 44 b/s
Count of elements : 263
Stream size : 6.89 KiB (0%)
Title : Portuguese [Full]
Language : Portuguese
Default : No
Forced : No

Text #8
ID : 10
Format : UTF-8
Codec ID : S_TEXT/UTF8
Codec ID/Info : UTF-8 Plain Text
Duration : 21 min 5 s
Bit rate : 47 b/s
Count of elements : 259
Stream size : 7.30 KiB (0%)
Title : Brazilian Portuguese [Full]
Language : Portuguese
Default : No
Forced : No

Text #9
ID : 11
Format : UTF-8
Codec ID : S_TEXT/UTF8
Codec ID/Info : UTF-8 Plain Text
Duration : 21 min 5 s
Bit rate : 40 b/s
Count of elements : 264
Stream size : 6.26 KiB (0%)
Title : Polish [Full]
Language : Polish
Default : No
Forced : No

Text #10
ID : 12
Format : UTF-8
Codec ID : S_TEXT/UTF8
Codec ID/Info : UTF-8 Plain Text
Duration : 20 min 55 s
Bit rate : 45 b/s
Count of elements : 263
Stream size : 6.92 KiB (0%)
Title : Turkish [Full]
Language : Turkish
Default : No
Forced : No

Text #11
ID : 13
Format : UTF-8
Codec ID : S_TEXT/UTF8
Codec ID/Info : UTF-8 Plain Text
Duration : 21 min 5 s
Bit rate : 49 b/s
Count of elements : 262
Stream size : 7.63 KiB (0%)
Title : Swedish [Full]
Language : Swedish
Default : No
Forced : No

Text #12
ID : 14
Format : UTF-8
Codec ID : S_TEXT/UTF8
Codec ID/Info : UTF-8 Plain Text
Duration : 21 min 5 s
Bit rate : 46 b/s
Count of elements : 263
Stream size : 7.20 KiB (0%)
Title : Danish [Full]
Language : Danish
Default : No
Forced : No

Text #13
ID : 15
Format : UTF-8
Codec ID : S_TEXT/UTF8
Codec ID/Info : UTF-8 Plain Text
Duration : 21 min 5 s
Bit rate : 46 b/s
Count of elements : 263
Stream size : 7.13 KiB (0%)
Title : Finnish [Full]
Language : Finnish
Default : No
Forced : No

Text #14
ID : 16
Format : UTF-8
Codec ID : S_TEXT/UTF8
Codec ID/Info : UTF-8 Plain Text
Duration : 20 min 55 s
Bit rate : 41 b/s
Count of elements : 261
Stream size : 6.42 KiB (0%)
Title : Dutch [Full]
Language : Dutch
Default : No
Forced : No

Text #15
ID : 17
Format : UTF-8
Codec ID : S_TEXT/UTF8
Codec ID/Info : UTF-8 Plain Text
Duration : 21 min 5 s
Bit rate : 44 b/s
Count of elements : 263
Stream size : 6.93 KiB (0%)
Title : Norwegian (Bokmål) [Full]
Language : Norwegian Bokmal
Default : No
Forced : No

Text #16
ID : 18
Format : UTF-8
Codec ID : S_TEXT/UTF8
Codec ID/Info : UTF-8 Plain Text
Duration : 21 min 5 s
Bit rate : 79 b/s
Count of elements : 265
Stream size : 12.3 KiB (0%)
Title : Russian [Full]
Language : Russian
Default : No
Forced : No

Text #17
ID : 19
Format : UTF-8
Codec ID : S_TEXT/UTF8
Codec ID/Info : UTF-8 Plain Text
Duration : 21 min 5 s
Bit rate : 72 b/s
Count of elements : 265
Stream size : 11.1 KiB (0%)
Title : Hebrew [Full]
Language : Hebrew
Default : No
Forced : No

Text #18
ID : 20
Format : UTF-8
Codec ID : S_TEXT/UTF8
Codec ID/Info : UTF-8 Plain Text
Duration : 21 min 5 s
Bit rate : 79 b/s
Count of elements : 265
Stream size : 12.2 KiB (0%)
Title : Arabic [Full]
Language : Arabic
Default : No
Forced : No

Text #19
ID : 21
Format : UTF-8
Codec ID : S_TEXT/UTF8
Codec ID/Info : UTF-8 Plain Text
Duration : 21 min 5 s
Bit rate : 129 b/s
Count of elements : 265
Stream size : 20.0 KiB (0%)
Title : Hindi [Full]
Language : Hindi
Default : No
Forced : No

Text #20
ID : 22
Format : UTF-8
Codec ID : S_TEXT/UTF8
Codec ID/Info : UTF-8 Plain Text
Duration : 21 min 5 s
Bit rate : 148 b/s
Count of elements : 265
Stream size : 23.0 KiB (0%)
Title : Tamil [Full]
Language : Tamil
Default : No
Forced : No

Text #21
ID : 23
Format : UTF-8
Codec ID : S_TEXT/UTF8
Codec ID/Info : UTF-8 Plain Text
Duration : 21 min 5 s
Bit rate : 138 b/s
Count of elements : 265
Stream size : 21.3 KiB (0%)
Title : Telugu [Full]
Language : Telugu
Default : No
Forced : No

Text #22
ID : 24
Format : UTF-8
Codec ID : S_TEXT/UTF8
Codec ID/Info : UTF-8 Plain Text
Duration : 21 min 5 s
Bit rate : 41 b/s
Count of elements : 264
Stream size : 6.46 KiB (0%)
Title : Indonesian [Full]
Language : Indonesian
Default : No
Forced : No

Text #23
ID : 25
Format : UTF-8
Codec ID : S_TEXT/UTF8
Codec ID/Info : UTF-8 Plain Text
Duration : 21 min 5 s
Bit rate : 113 b/s
Count of elements : 265
Stream size : 17.5 KiB (0%)
Title : Thai [Full]
Language : Thai
Default : No
Forced : No

Text #24
ID : 26
Format : UTF-8
Codec ID : S_TEXT/UTF8
Codec ID/Info : UTF-8 Plain Text
Duration : 21 min 5 s
Bit rate : 55 b/s
Count of elements : 264
Stream size : 8.57 KiB (0%)
Title : Korean [Full]
Language : Korean
Default : No
Forced : No

Text #25
ID : 27
Format : UTF-8
Codec ID : S_TEXT/UTF8
Codec ID/Info : UTF-8 Plain Text
Duration : 21 min 5 s
Bit rate : 45 b/s
Count of elements : 265
Stream size : 6.99 KiB (0%)
Title : Chinese (Simplified) [Full]
Language : Chinese
Default : No
Forced : No

Text #26
ID : 28
Format : UTF-8
Codec ID : S_TEXT/UTF8
Codec ID/Info : UTF-8 Plain Text
Duration : 21 min 5 s
Bit rate : 45 b/s
Count of elements : 265
Stream size : 6.98 KiB (0%)
Title : Chinese (Traditional) [Full]
Language : Chinese
Default : No
Forced : No

Text #27
ID : 29
Format : UTF-8
Codec ID : S_TEXT/UTF8
Codec ID/Info : UTF-8 Plain Text
Duration : 20 min 0 s
Bit rate : 38 b/s
Count of elements : 256
Stream size : 5.65 KiB (0%)
Title : Japanese [Full]
Language : Japanese
Default : No
Forced : No





Homecoming S02E06


Homecoming S02E06


Homecoming S02E06


Homecoming S02E06


Homecoming S02E06