Homecoming S02E07

TV Series
Homecoming S02E07

Homecoming S02E07
WEB-DL | MKV | 960x540 | English | H264 @ 1162 kbps | E-AC-3 @ 224 kbps | 30 min 34 s | 304 MiB
Subtitles: ภาษาไทย, Français, Español, 日本語, עברית, 한국어, Русский, Nederlands, Dansk, Bahasa Indonesia, Bokmål, 中文, Suomi, Polski, Türkçe, English, हिन्दी, العربية, Deutsch, Svenska, Italiano, Português
Genre: Drama


Heidi Bergman is a caseworker at Homecoming, a Geist Group facility helping soldiers transition to civilian life. Years later she has started a new life, living with her mother and working as a waitress, when a Department of Defense auditor questions why she left the Homecoming facility. Heidi quickly realizes that there's a whole other story behind the story she's been telling herself.

Homecoming.S02E06.Needle.AMZN.WEB-DL.DDP2.0.H.264-BTW.mkv (218.6 MB)
Homecoming.S02E01.People.AMZN.WEB-DL.DDP2.0.H.264-BTW.mkv (195.1 MB)
Homecoming.S02E04.Soap.AMZN.WEB-DL.DDP2.0.H.264-BTW.mkv (200.1 MB)
Homecoming.S02E07.Again.AMZN.WEB-DL.DDP2.0.H.264-BTW.mkv (298.5 MB)
Homecoming.S02E05.Meters.AMZN.WEB-DL.DDP2.0.H.264-BTW.mkv (256.9 MB)
Homecoming.S02E03.Previously.AMZN.WEB-DL.DDP2.0.H.264-BTW.mkv (211.9 MB)
Homecoming.S02E02.Giant.AMZN.WEB-DL.DDP2.0.H.264-BTW.mkv (304.0 MB)



General
Unique ID : 17073146998506905221292485722878964024 (0xCD82B2323B0D3E668715871CD06F138)
Complete name : ./Homecoming.S02E02.Giant.AMZN.WEB-DL.DDP2.0.H.264-BTW.mkv
Format : Matroska
Format version : Version 4 / Version 2
File size : 304 MiB
Duration : 30 min 34 s
Overall bit rate : 1 390 kb/s
Encoded date : UTC 2020-05-22 00:07:31
Writing application : mkvmerge v45.0.0 ('Heaven in Pennies') 64-bit
Writing library : libebml v1.3.10 + libmatroska v1.5.2

Video
ID : 1
Format : AVC
Format/Info : Advanced Video Codec
Format profile : High@L3.1
Format settings : CABAC / 5 Ref Frames
Format settings, CABAC : Yes
Format settings, RefFrames : 5 frames
Codec ID : V_MPEG4/ISO/AVC
Duration : 30 min 34 s
Bit rate : 1 162 kb/s
Width : 960 pixels
Height : 540 pixels
Display aspect ratio : 16:9
Frame rate mode : Constant
Frame rate : 23.976 (24000/1001) FPS
Color space : YUV
Chroma subsampling : 4:2:0
Bit depth : 8 bits
Scan type : Progressive
Bits/(Pixel*Frame) : 0.093
Stream size : 254 MiB (84%)
Default : Yes
Forced : No
Color range : Limited
Color primaries : BT.709
Transfer characteristics : BT.709
Matrix coefficients : BT.709

Audio
ID : 2
Format : E-AC-3
Format/Info : Enhanced Audio Coding 3
Format settings, Endianness : Big
Codec ID : A_EAC3
Duration : 30 min 34 s
Bit rate mode : Constant
Bit rate : 224 kb/s
Channel(s) : 2 channels
Channel positions : Front: L R
Sampling rate : 48.0 kHz
Frame rate : 187.500 FPS (256 SPF)
Compression mode : Lossy
Stream size : 49.0 MiB (16%)
Language : English
Service kind : Complete Main
Default : Yes
Forced : No

Text #1
ID : 3
Format : UTF-8
Codec ID : S_TEXT/UTF8
Codec ID/Info : UTF-8 Plain Text
Duration : 30 min 16 s
Bit rate : 47 b/s
Count of elements : 443
Stream size : 10.6 KiB (0%)
Title : SDH
Language : English
Default : No
Forced : No

Text #2
ID : 4
Format : UTF-8
Codec ID : S_TEXT/UTF8
Codec ID/Info : UTF-8 Plain Text
Duration : 26 min 31 s
Bit rate : 62 b/s
Count of elements : 223
Stream size : 12.1 KiB (0%)
Language : Arabic
Default : No
Forced : No

Text #3
ID : 5
Format : UTF-8
Codec ID : S_TEXT/UTF8
Codec ID/Info : UTF-8 Plain Text
Duration : 26 min 31 s
Bit rate : 36 b/s
Count of elements : 219
Stream size : 7.17 KiB (0%)
Language : Danish
Default : No
Forced : No

Text #4
ID : 6
Format : UTF-8
Codec ID : S_TEXT/UTF8
Codec ID/Info : UTF-8 Plain Text
Duration : 25 min 32 s
Bit rate : 36 b/s
Count of elements : 184
Stream size : 6.88 KiB (0%)
Language : German
Default : No
Forced : No

Text #5
ID : 7
Format : UTF-8
Codec ID : S_TEXT/UTF8
Codec ID/Info : UTF-8 Plain Text
Duration : 26 min 31 s
Bit rate : 37 b/s
Count of elements : 219
Stream size : 7.21 KiB (0%)
Title : Latinoamérica
Language : Spanish
Default : No
Forced : No

Text #6
ID : 8
Format : UTF-8
Codec ID : S_TEXT/UTF8
Codec ID/Info : UTF-8 Plain Text
Duration : 26 min 31 s
Bit rate : 36 b/s
Count of elements : 215
Stream size : 7.06 KiB (0%)
Title : España
Language : Spanish
Default : No
Forced : No

Text #7
ID : 9
Format : UTF-8
Codec ID : S_TEXT/UTF8
Codec ID/Info : UTF-8 Plain Text
Duration : 26 min 31 s
Bit rate : 35 b/s
Count of elements : 218
Stream size : 6.80 KiB (0%)
Language : Finnish
Default : No
Forced : No

Text #8
ID : 10
Format : UTF-8
Codec ID : S_TEXT/UTF8
Codec ID/Info : UTF-8 Plain Text
Duration : 25 min 33 s
Bit rate : 36 b/s
Count of elements : 217
Stream size : 6.90 KiB (0%)
Language : French
Default : No
Forced : No

Text #9
ID : 11
Format : UTF-8
Codec ID : S_TEXT/UTF8
Codec ID/Info : UTF-8 Plain Text
Duration : 26 min 31 s
Bit rate : 56 b/s
Count of elements : 223
Stream size : 11.0 KiB (0%)
Language : Hebrew
Default : No
Forced : No

Text #10
ID : 12
Format : UTF-8
Codec ID : S_TEXT/UTF8
Codec ID/Info : UTF-8 Plain Text
Duration : 26 min 31 s
Bit rate : 97 b/s
Count of elements : 223
Stream size : 19.0 KiB (0%)
Language : Hindi
Default : No
Forced : No

Text #11
ID : 13
Format : UTF-8
Codec ID : S_TEXT/UTF8
Codec ID/Info : UTF-8 Plain Text
Duration : 26 min 31 s
Bit rate : 34 b/s
Count of elements : 219
Stream size : 6.67 KiB (0%)
Language : Indonesian
Default : No
Forced : No

Text #12
ID : 14
Format : UTF-8
Codec ID : S_TEXT/UTF8
Codec ID/Info : UTF-8 Plain Text
Duration : 25 min 33 s
Bit rate : 37 b/s
Count of elements : 216
Stream size : 7.00 KiB (0%)
Language : Italian
Default : No
Forced : No

Text #13
ID : 15
Format : UTF-8
Codec ID : S_TEXT/UTF8
Codec ID/Info : UTF-8 Plain Text
Duration : 26 min 31 s
Bit rate : 30 b/s
Count of elements : 197
Stream size : 5.89 KiB (0%)
Language : Japanese
Default : No
Forced : No

Text #14
ID : 16
Format : UTF-8
Codec ID : S_TEXT/UTF8
Codec ID/Info : UTF-8 Plain Text
Duration : 26 min 31 s
Bit rate : 44 b/s
Count of elements : 223
Stream size : 8.63 KiB (0%)
Language : Korean
Default : No
Forced : No

Text #15
ID : 17
Format : UTF-8
Codec ID : S_TEXT/UTF8
Codec ID/Info : UTF-8 Plain Text
Duration : 26 min 31 s
Bit rate : 33 b/s
Count of elements : 219
Stream size : 6.60 KiB (0%)
Language : Norwegian Bokmal
Default : No
Forced : No

Text #16
ID : 18
Format : UTF-8
Codec ID : S_TEXT/UTF8
Codec ID/Info : UTF-8 Plain Text
Duration : 25 min 33 s
Bit rate : 33 b/s
Count of elements : 218
Stream size : 6.25 KiB (0%)
Language : Dutch
Default : No
Forced : No

Text #17
ID : 19
Format : UTF-8
Codec ID : S_TEXT/UTF8
Codec ID/Info : UTF-8 Plain Text
Duration : 26 min 31 s
Bit rate : 32 b/s
Count of elements : 219
Stream size : 6.30 KiB (0%)
Language : Polish
Default : No
Forced : No

Text #18
ID : 20
Format : UTF-8
Codec ID : S_TEXT/UTF8
Codec ID/Info : UTF-8 Plain Text
Duration : 26 min 31 s
Bit rate : 36 b/s
Count of elements : 217
Stream size : 7.08 KiB (0%)
Title : Brasil
Language : Portuguese
Default : No
Forced : No

Text #19
ID : 21
Format : UTF-8
Codec ID : S_TEXT/UTF8
Codec ID/Info : UTF-8 Plain Text
Duration : 25 min 33 s
Bit rate : 35 b/s
Count of elements : 218
Stream size : 6.70 KiB (0%)
Title : Portugal
Language : Portuguese
Default : No
Forced : No

Text #20
ID : 22
Format : UTF-8
Codec ID : S_TEXT/UTF8
Codec ID/Info : UTF-8 Plain Text
Duration : 26 min 31 s
Bit rate : 63 b/s
Count of elements : 223
Stream size : 12.4 KiB (0%)
Language : Russian
Default : No
Forced : No

Text #21
ID : 23
Format : UTF-8
Codec ID : S_TEXT/UTF8
Codec ID/Info : UTF-8 Plain Text
Duration : 26 min 31 s
Bit rate : 35 b/s
Count of elements : 218
Stream size : 6.98 KiB (0%)
Language : Swedish
Default : No
Forced : No

Text #22
ID : 24
Format : UTF-8
Codec ID : S_TEXT/UTF8
Codec ID/Info : UTF-8 Plain Text
Duration : 26 min 31 s
Bit rate : 115 b/s
Count of elements : 223
Stream size : 22.4 KiB (0%)
Language : Tamil
Default : No
Forced : No

Text #23
ID : 25
Format : UTF-8
Codec ID : S_TEXT/UTF8
Codec ID/Info : UTF-8 Plain Text
Duration : 26 min 31 s
Bit rate : 108 b/s
Count of elements : 223
Stream size : 21.0 KiB (0%)
Language : Telugu
Default : No
Forced : No

Text #24
ID : 26
Format : UTF-8
Codec ID : S_TEXT/UTF8
Codec ID/Info : UTF-8 Plain Text
Duration : 26 min 31 s
Bit rate : 95 b/s
Count of elements : 223
Stream size : 18.5 KiB (0%)
Language : Thai
Default : No
Forced : No

Text #25
ID : 27
Format : UTF-8
Codec ID : S_TEXT/UTF8
Codec ID/Info : UTF-8 Plain Text
Duration : 25 min 33 s
Bit rate : 38 b/s
Count of elements : 219
Stream size : 7.14 KiB (0%)
Language : Turkish
Default : No
Forced : No

Text #26
ID : 28
Format : UTF-8
Codec ID : S_TEXT/UTF8
Codec ID/Info : UTF-8 Plain Text
Duration : 26 min 31 s
Bit rate : 34 b/s
Count of elements : 223
Stream size : 6.80 KiB (0%)
Title : 中文(简体)
Language : Chinese
Default : No
Forced : No

Text #27
ID : 29
Format : UTF-8
Codec ID : S_TEXT/UTF8
Codec ID/Info : UTF-8 Plain Text
Duration : 26 min 31 s
Bit rate : 35 b/s
Count of elements : 223
Stream size : 6.85 KiB (0%)
Title : 中文(繁體)
Language : Chinese
Default : No
Forced : No

Menu
00:00:00.000 : en:Amazon Original
00:00:05.000 : en:Opening Credits
00:00:19.000 : en:Jackie wakes up
00:01:10.000 : en:Title Sequence
00:01:16.000 : en:New car
00:03:01.000 : en:Buying supplies
00:04:19.000 : en:Investigating the house
00:08:52.000 : en:All trails lead back to Geist
00:13:01.000 : en:Testing
00:14:52.000 : en:Audrey is stressed
00:15:48.000 : en:Talking about Geist products
00:16:53.000 : en:Audrey confronts Leonard
00:19:31.000 : en:Touring the facility
00:20:40.000 : en:Sneaking around
00:23:17.000 : en:Leonard gives his speech
00:26:38.000 : en:Who is Alex?
00:27:46.000 : en:End Credits





Homecoming S02E07


Homecoming S02E07


Homecoming S02E07


Homecoming S02E07


Homecoming S02E07