Homecoming S02E07

TV Series
Homecoming S02E07

Homecoming S02E07
WEBRip | MKV | 3840x2160 | English | H265 @ 13857 kbps | E-AC-3 @ 640 kbps | 37 min 22 s | 3.79 GiB
Subtitles: ภาษาไทย, Français, Español, 日本語, עברית, 한국어, Русский, Bahasa Indonesia, Dansk, Nederlands, Bokmål, 中文, Suomi, Polski, Türkçe, English, हिन्दी, العربية, Deutsch, Svenska, Italiano, Português
Genre: Drama


Heidi Bergman is a caseworker at Homecoming, a Geist Group facility helping soldiers transition to civilian life. Years later she has started a new life, living with her mother and working as a waitress, when a Department of Defense auditor questions why she left the Homecoming facility. Heidi quickly realizes that there's a whole other story behind the story she's been telling herself.

f92e600faef9982d29e2227f7ac3a7fb.mkv (3.8 GB)



General
Unique ID : 45756356525456415189077936280092024788 (0x226C5A8D40A9C336D2C726504C341FD4)
Complete name : ./f92e600faef9982d29e2227f7ac3a7fb.mkv
Format : Matroska
Format version : Version 4 / Version 2
File size : 3.79 GiB
Duration : 37 min 22 s
Overall bit rate : 14.5 Mb/s
Encoded date : UTC 2020-05-22 09:42:29
Writing application : mkvmerge v45.0.0 ('Heaven in Pennies') 64-bit
Writing library : libebml v1.3.10 + libmatroska v1.5.2

Video
ID : 1
Format : HEVC
Format/Info : High Efficiency Video Coding
Format profile : Main 10@L5@Main
Codec ID : V_MPEGH/ISO/HEVC
Duration : 37 min 22 s
Bit rate : 13.9 Mb/s
Width : 3 840 pixels
Height : 2 160 pixels
Display aspect ratio : 16:9
Frame rate mode : Constant
Frame rate : 23.976 (24000/1001) FPS
Standard : NTSC
Color space : YUV
Chroma subsampling : 4:2:0 (Type 2)
Bit depth : 10 bits
Bits/(Pixel*Frame) : 0.070
Stream size : 3.62 GiB (96%)
Default : Yes
Forced : No
Color range : Limited
Color primaries : BT.2020
Transfer characteristics : PQ
Matrix coefficients : BT.2020 non-constant
Mastering display color primaries : R: x=0.680000 y=0.320000, G: x=0.265000 y=0.690000, B: x=0.150000 y=0.060000, White point: x=0.312700 y=0.329000
Mastering display luminance : min: 0.0001 cd/m2, max: 1000.0000 cd/m2
Maximum Content Light Level : 1000 cd/m2
Maximum Frame-Average Light Level : 209 cd/m2

Audio
ID : 2
Format : E-AC-3
Format/Info : Enhanced Audio Coding 3
Format settings, Endianness : Big
Codec ID : A_EAC3
Duration : 37 min 22 s
Bit rate mode : Constant
Bit rate : 640 kb/s
Channel(s) : 6 channels
Channel positions : Front: L C R, Side: L R, LFE
Sampling rate : 48.0 kHz
Frame rate : 187.500 FPS (256 SPF)
Compression mode : Lossy
Stream size : 171 MiB (4%)
Title : English
Language : English
Service kind : Complete Main
Default : Yes
Forced : No

Text #1
ID : 3
Format : UTF-8
Codec ID : S_TEXT/UTF8
Codec ID/Info : UTF-8 Plain Text
Duration : 36 min 59 s
Bit rate : 51 b/s
Count of elements : 561
Stream size : 13.9 KiB (0%)
Title : English [SDH]
Language : English
Default : No
Forced : No

Text #2
ID : 4
Format : UTF-8
Codec ID : S_TEXT/UTF8
Codec ID/Info : UTF-8 Plain Text
Duration : 33 min 20 s
Bit rate : 40 b/s
Count of elements : 349
Stream size : 9.81 KiB (0%)
Title : Castilian [Full]
Language : Spanish
Default : No
Forced : No

Text #3
ID : 5
Format : UTF-8
Codec ID : S_TEXT/UTF8
Codec ID/Info : UTF-8 Plain Text
Duration : 33 min 20 s
Bit rate : 39 b/s
Count of elements : 350
Stream size : 9.66 KiB (0%)
Title : Spanish [Full]
Language : Spanish
Default : No
Forced : No

Text #4
ID : 6
Format : UTF-8
Codec ID : S_TEXT/UTF8
Codec ID/Info : UTF-8 Plain Text
Duration : 33 min 20 s
Bit rate : 40 b/s
Count of elements : 346
Stream size : 9.85 KiB (0%)
Title : French [Full]
Language : French
Default : No
Forced : No

Text #5
ID : 7
Format : UTF-8
Codec ID : S_TEXT/UTF8
Codec ID/Info : UTF-8 Plain Text
Duration : 32 min 49 s
Bit rate : 42 b/s
Count of elements : 276
Stream size : 10.3 KiB (0%)
Title : German [Full]
Language : German
Default : No
Forced : No

Text #6
ID : 8
Format : UTF-8
Codec ID : S_TEXT/UTF8
Codec ID/Info : UTF-8 Plain Text
Duration : 33 min 20 s
Bit rate : 40 b/s
Count of elements : 348
Stream size : 9.83 KiB (0%)
Title : Italian [Full]
Language : Italian
Default : No
Forced : No

Text #7
ID : 9
Format : UTF-8
Codec ID : S_TEXT/UTF8
Codec ID/Info : UTF-8 Plain Text
Duration : 33 min 20 s
Bit rate : 37 b/s
Count of elements : 346
Stream size : 9.22 KiB (0%)
Title : Portuguese [Full]
Language : Portuguese
Default : No
Forced : No

Text #8
ID : 10
Format : UTF-8
Codec ID : S_TEXT/UTF8
Codec ID/Info : UTF-8 Plain Text
Duration : 33 min 20 s
Bit rate : 40 b/s
Count of elements : 350
Stream size : 9.80 KiB (0%)
Title : Brazilian Portuguese [Full]
Language : Portuguese
Default : No
Forced : No

Text #9
ID : 11
Format : UTF-8
Codec ID : S_TEXT/UTF8
Codec ID/Info : UTF-8 Plain Text
Duration : 33 min 20 s
Bit rate : 36 b/s
Count of elements : 347
Stream size : 8.87 KiB (0%)
Title : Polish [Full]
Language : Polish
Default : No
Forced : No

Text #10
ID : 12
Format : UTF-8
Codec ID : S_TEXT/UTF8
Codec ID/Info : UTF-8 Plain Text
Duration : 33 min 20 s
Bit rate : 38 b/s
Count of elements : 349
Stream size : 9.50 KiB (0%)
Title : Turkish [Full]
Language : Turkish
Default : No
Forced : No

Text #11
ID : 13
Format : UTF-8
Codec ID : S_TEXT/UTF8
Codec ID/Info : UTF-8 Plain Text
Duration : 33 min 20 s
Bit rate : 41 b/s
Count of elements : 347
Stream size : 10.0 KiB (0%)
Title : Swedish [Full]
Language : Swedish
Default : No
Forced : No

Text #12
ID : 14
Format : UTF-8
Codec ID : S_TEXT/UTF8
Codec ID/Info : UTF-8 Plain Text
Duration : 33 min 20 s
Bit rate : 40 b/s
Count of elements : 348
Stream size : 9.90 KiB (0%)
Title : Danish [Full]
Language : Danish
Default : No
Forced : No

Text #13
ID : 15
Format : UTF-8
Codec ID : S_TEXT/UTF8
Codec ID/Info : UTF-8 Plain Text
Duration : 33 min 20 s
Bit rate : 39 b/s
Count of elements : 350
Stream size : 9.69 KiB (0%)
Title : Finnish [Full]
Language : Finnish
Default : No
Forced : No

Text #14
ID : 16
Format : UTF-8
Codec ID : S_TEXT/UTF8
Codec ID/Info : UTF-8 Plain Text
Duration : 33 min 20 s
Bit rate : 36 b/s
Count of elements : 349
Stream size : 8.91 KiB (0%)
Title : Dutch [Full]
Language : Dutch
Default : No
Forced : No

Text #15
ID : 17
Format : UTF-8
Codec ID : S_TEXT/UTF8
Codec ID/Info : UTF-8 Plain Text
Duration : 33 min 20 s
Bit rate : 38 b/s
Count of elements : 350
Stream size : 9.34 KiB (0%)
Title : Norwegian (Bokmål) [Full]
Language : Norwegian Bokmal
Default : No
Forced : No

Text #16
ID : 18
Format : UTF-8
Codec ID : S_TEXT/UTF8
Codec ID/Info : UTF-8 Plain Text
Duration : 33 min 20 s
Bit rate : 68 b/s
Count of elements : 351
Stream size : 16.7 KiB (0%)
Title : Russian [Full]
Language : Russian
Default : No
Forced : No

Text #17
ID : 19
Format : UTF-8
Codec ID : S_TEXT/UTF8
Codec ID/Info : UTF-8 Plain Text
Duration : 33 min 20 s
Bit rate : 62 b/s
Count of elements : 352
Stream size : 15.2 KiB (0%)
Title : Hebrew [Full]
Language : Hebrew
Default : No
Forced : No

Text #18
ID : 20
Format : UTF-8
Codec ID : S_TEXT/UTF8
Codec ID/Info : UTF-8 Plain Text
Duration : 33 min 20 s
Bit rate : 64 b/s
Count of elements : 352
Stream size : 15.6 KiB (0%)
Title : Arabic [Full]
Language : Arabic
Default : No
Forced : No

Text #19
ID : 21
Format : UTF-8
Codec ID : S_TEXT/UTF8
Codec ID/Info : UTF-8 Plain Text
Duration : 33 min 20 s
Bit rate : 107 b/s
Count of elements : 352
Stream size : 26.3 KiB (0%)
Title : Hindi [Full]
Language : Hindi
Default : No
Forced : No

Text #20
ID : 22
Format : UTF-8
Codec ID : S_TEXT/UTF8
Codec ID/Info : UTF-8 Plain Text
Duration : 33 min 20 s
Bit rate : 126 b/s
Count of elements : 352
Stream size : 30.8 KiB (0%)
Title : Tamil [Full]
Language : Tamil
Default : No
Forced : No

Text #21
ID : 23
Format : UTF-8
Codec ID : S_TEXT/UTF8
Codec ID/Info : UTF-8 Plain Text
Duration : 33 min 20 s
Bit rate : 107 b/s
Count of elements : 352
Stream size : 26.2 KiB (0%)
Title : Telugu [Full]
Language : Telugu
Default : No
Forced : No

Text #22
ID : 24
Format : UTF-8
Codec ID : S_TEXT/UTF8
Codec ID/Info : UTF-8 Plain Text
Duration : 33 min 20 s
Bit rate : 37 b/s
Count of elements : 350
Stream size : 9.09 KiB (0%)
Title : Indonesian [Full]
Language : Indonesian
Default : No
Forced : No

Text #23
ID : 25
Format : UTF-8
Codec ID : S_TEXT/UTF8
Codec ID/Info : UTF-8 Plain Text
Duration : 33 min 20 s
Bit rate : 95 b/s
Count of elements : 352
Stream size : 23.4 KiB (0%)
Title : Thai [Full]
Language : Thai
Default : No
Forced : No

Text #24
ID : 26
Format : UTF-8
Codec ID : S_TEXT/UTF8
Codec ID/Info : UTF-8 Plain Text
Duration : 33 min 20 s
Bit rate : 49 b/s
Count of elements : 352
Stream size : 12.1 KiB (0%)
Title : Korean [Full]
Language : Korean
Default : No
Forced : No

Text #25
ID : 27
Format : UTF-8
Codec ID : S_TEXT/UTF8
Codec ID/Info : UTF-8 Plain Text
Duration : 33 min 20 s
Bit rate : 38 b/s
Count of elements : 352
Stream size : 9.51 KiB (0%)
Title : Chinese (Simplified) [Full]
Language : Chinese
Default : No
Forced : No

Text #26
ID : 28
Format : UTF-8
Codec ID : S_TEXT/UTF8
Codec ID/Info : UTF-8 Plain Text
Duration : 33 min 20 s
Bit rate : 38 b/s
Count of elements : 352
Stream size : 9.51 KiB (0%)
Title : Chinese (Traditional) [Full]
Language : Chinese
Default : No
Forced : No

Text #27
ID : 29
Format : UTF-8
Codec ID : S_TEXT/UTF8
Codec ID/Info : UTF-8 Plain Text
Duration : 33 min 6 s
Bit rate : 34 b/s
Count of elements : 342
Stream size : 8.41 KiB (0%)
Title : Japanese [Full]
Language : Japanese
Default : No
Forced : No





Homecoming S02E07


Homecoming S02E07


Homecoming S02E07


Homecoming S02E07


Homecoming S02E07