How To with John Wilson S01E02

TV Series
How To with John Wilson S01E02

How To with John Wilson S01E02
WEB-DL | MKV | 1280x720 | English | H264 @ 5567 kbps | E-AC-3 @ 640 kbps | 27 min 59 s | 1.21 GiB
Subtitles: English
Genre: Comedy, Documentary


In a uniquely hilarious odyssey of self-discovery and cultural observation, documentary filmmaker and self-described “anxious New Yorker” John Wilson covertly and obsessively films the lives of his fellow New Yorkers while attempting to give everyday advice on relatable topics. The awkward contradictions of modern life are eased by Wilson’s candid, unpolished commentary. Building upon Wilson’s previously released “how to” short films, each episode takes wildly unexpected turns but is grounded in John’s refreshing honesty.

4bfddab9f1bbb483c2ef7a6aad4e00a5.mkv (1.2 GB)



General
Unique ID : 145494182111211758109568154003279243891 (0x6D7529034635E74394A73B978580EA73)
Complete name : ./4bfddab9f1bbb483c2ef7a6aad4e00a5.mkv
Format : Matroska
Format version : Version 4 / Version 2
File size : 1.21 GiB
Duration : 27 min 59 s
Overall bit rate : 6 210 kb/s
Encoded date : UTC 2020-10-31 14:16:09
Writing application : mkvmerge v44.0.0 ('Domino') 64-bit
Writing library : libebml v1.3.10 + libmatroska v1.5.2

Video
ID : 1
Format : AVC
Format/Info : Advanced Video Codec
Format profile : High@L3.1
Format settings : CABAC / 4 Ref Frames
Format settings, CABAC : Yes
Format settings, RefFrames : 4 frames
Codec ID : V_MPEG4/ISO/AVC
Duration : 27 min 59 s
Bit rate mode : Constant
Bit rate : 5 567 kb/s
Nominal bit rate : 6 000 kb/s
Width : 1 280 pixels
Height : 720 pixels
Display aspect ratio : 16:9
Frame rate mode : Constant
Frame rate : 29.970 (30000/1001) FPS
Color space : YUV
Chroma subsampling : 4:2:0
Bit depth : 8 bits
Scan type : Progressive
Bits/(Pixel*Frame) : 0.202
Stream size : 1.09 GiB (90%)
Default : Yes
Forced : No
Color range : Limited
Color primaries : BT.709
Transfer characteristics : BT.709
Matrix coefficients : BT.709

Audio
ID : 2
Format : E-AC-3
Format/Info : Enhanced Audio Coding 3
Format settings, Endianness : Big
Codec ID : A_EAC3
Duration : 27 min 59 s
Bit rate mode : Constant
Bit rate : 640 kb/s
Channel(s) : 6 channels
Channel positions : Front: L C R, Side: L R, LFE
Sampling rate : 48.0 kHz
Frame rate : 187.500 FPS (256 SPF)
Compression mode : Lossy
Delay relative to video : 26 ms
Stream size : 128 MiB (10%)
Language : English
Service kind : Complete Main
Default : Yes
Forced : No

Text
ID : 3
Format : UTF-8
Codec ID : S_TEXT/UTF8
Codec ID/Info : UTF-8 Plain Text
Duration : 27 min 46 s
Bit rate : 125 b/s
Count of elements : 549
Stream size : 25.5 KiB (0%)
Title : SDH
Language : English
Default : No
Forced : No





How To with John Wilson S01E02


How To with John Wilson S01E02


How To with John Wilson S01E02


How To with John Wilson S01E02


How To with John Wilson S01E02