How to Sell Drugs Online (Fast) S01E02

TV Series
How to Sell Drugs Online (Fast) S01E02

How to Sell Drugs Online (Fast) S01E02
WEB-DL | MKV | 1920x1080 | Deutsch | H264 @ 3130 kbps | E-AC-3 @ 640 kbps | 29 min 58 s | 809 MiB
Subtitles: Deutsch, English
Genre: Comedy, Crime, Drama


To impress his ex-girlfriend, a nerdy teen starts selling drugs online out of his bedroom – and becomes one of Europe's biggest dealers.

bbab340125764dedbecea4ea90e45ac7.mkv (808.6 MB)



General
Unique ID : 319729216827910209236503124669444901631 (0xF0899B76997A922857F5ACE576CFCAFF)
Complete name : ./bbab340125764dedbecea4ea90e45ac7.mkv
Format : Matroska
Format version : Version 4 / Version 2
File size : 809 MiB
Duration : 29 min 58 s
Overall bit rate mode : Variable
Overall bit rate : 3 772 kb/s
Movie name : How.to.Sell.Drugs.Online.Fast.S01E02.Lifes.Not.Fair.Get.Used.to.It.1080p.NF.WEB-DL.DDP5.1.x264-TEPES
Encoded date : UTC 2019-05-31 12:12:10
Writing application : mkvmerge v34.0.0 ('Sight and Seen') 64-bit
Writing library : libebml v1.3.7 + libmatroska v1.5.0

Video
ID : 1
Format : AVC
Format/Info : Advanced Video Codec
Format profile : High@L4
Format settings : CABAC / 4 Ref Frames
Format settings, CABAC : Yes
Format settings, RefFrames : 4 frames
Codec ID : V_MPEG4/ISO/AVC
Duration : 29 min 57 s
Bit rate mode : Variable
Bit rate : 3 131 kb/s
Maximum bit rate : 20.0 Mb/s
Width : 1 920 pixels
Height : 1 080 pixels
Display aspect ratio : 16:9
Frame rate mode : Constant
Frame rate : 25.000 FPS
Color space : YUV
Chroma subsampling : 4:2:0
Bit depth : 8 bits
Scan type : Progressive
Bits/(Pixel*Frame) : 0.060
Stream size : 671 MiB (83%)
Writing library : x264 core 148 r2715 7e75228
Encoding settings : cabac=1 / ref=4 / deblock=1:0:0 / analyse=0x3:0x111 / me=umh / subme=10 / psy=1 / psy_rd=1.00:0.00 / mixed_ref=1 / me_range=120 / chroma_me=1 / trellis=2 / 8x8dct=1 / cqm=0 / deadzone=21,11 / fast_pskip=1 / chroma_qp_offset=-2 / threads=8 / lookahead_threads=2 / sliced_threads=0 / nr=0 / decimate=1 / interlaced=0 / bluray_compat=0 / stitchable=1 / constrained_intra=0 / bframes=16 / b_pyramid=2 / b_adapt=2 / b_bias=0 / direct=3 / weightb=1 / open_gop=0 / weightp=2 / keyint=250 / keyint_min=126 / scenecut=0 / intra_refresh=0 / rc_lookahead=250 / rc=crf / mbtree=1 / crf=20.0 / qcomp=0.50 / qpmin=6 / qpmax=51 / qpstep=4 / vbv_maxrate=20000 / vbv_bufsize=25000 / crf_max=0.0 / nal_hrd=vbr / filler=0 / ip_ratio=1.40 / aq=1:0.80
Default : Yes
Forced : No

Audio
ID : 2
Format : E-AC-3
Format/Info : Enhanced Audio Coding 3
Format settings, Endianness : Big
Codec ID : A_EAC3
Duration : 29 min 58 s
Bit rate mode : Constant
Bit rate : 640 kb/s
Channel(s) : 6 channels
Channel positions : Front: L C R, Side: L R, LFE
Sampling rate : 48.0 kHz
Frame rate : 187.500 FPS (256 SPF)
Compression mode : Lossy
Stream size : 137 MiB (17%)
Language : German
Service kind : Complete Main
Default : Yes
Forced : No

Text #1
ID : 3
Format : UTF-8
Codec ID : S_TEXT/UTF8
Codec ID/Info : UTF-8 Plain Text
Duration : 29 min 29 s
Bit rate : 69 b/s
Count of elements : 367
Stream size : 15.0 KiB (0%)
Language : English
Default : No
Forced : No

Text #2
ID : 4
Format : UTF-8
Codec ID : S_TEXT/UTF8
Codec ID/Info : UTF-8 Plain Text
Duration : 29 min 39 s
Bit rate : 89 b/s
Count of elements : 502
Stream size : 19.5 KiB (0%)
Title : SDH
Language : English
Default : No
Forced : No

Text #3
ID : 5
Format : UTF-8
Codec ID : S_TEXT/UTF8
Codec ID/Info : UTF-8 Plain Text
Duration : 27 min 39 s
Bit rate : 11 b/s
Count of elements : 71
Stream size : 2.24 KiB (0%)
Title : Forced
Language : German
Default : No
Forced : Yes





How to Sell Drugs Online (Fast) S01E02


How to Sell Drugs Online (Fast) S01E02


How to Sell Drugs Online (Fast) S01E02


How to Sell Drugs Online (Fast) S01E02


How to Sell Drugs Online (Fast) S01E02