I Hate Suzie S01E01

TV Series
I Hate Suzie S01E01

I Hate Suzie S01E01
WEB-DL | MKV | 1920x1080 | English | H264 @ 6206 kbps | AAC @ 445 kbps | 30 min 44 s | 1.43 GiB
Subtitles: English
Genre: Comedy, Drama

Suzie Pickles, a star on the wane, has her whole life upended when her phone is hacked and a photo of her emerges in an extremely compromising position.

617403774f71c87c97e8781e2e80c43f.mkv (1.4 GB)



General
Unique ID : 165077005272768381882552507888184506951 (0x7C30ACBCF86BEDF1212593F1057EBA47)
Complete name : ./617403774f71c87c97e8781e2e80c43f.mkv
Format : Matroska
Format version : Version 4 / Version 2
File size : 1.43 GiB
Duration : 30 min 44 s
Overall bit rate : 6 660 kb/s
Encoded date : UTC 2020-08-28 15:54:00
Writing application : mkvmerge v47.0.0 ('Black Flag') 64-bit
Writing library : libebml v1.3.10 + libmatroska v1.5.2

Video
ID : 1
Format : AVC
Format/Info : Advanced Video Codec
Format profile : High@L4
Format settings : CABAC / 4 Ref Frames
Format settings, CABAC : Yes
Format settings, RefFrames : 4 frames
Codec ID : V_MPEG4/ISO/AVC
Duration : 30 min 44 s
Bit rate : 6 206 kb/s
Width : 1 920 pixels
Height : 1 080 pixels
Display aspect ratio : 16:9
Frame rate mode : Constant
Frame rate : 25.000 FPS
Color space : YUV
Chroma subsampling : 4:2:0
Bit depth : 8 bits
Scan type : Progressive
Bits/(Pixel*Frame) : 0.120
Stream size : 1.33 GiB (93%)
Default : Yes
Forced : No
Color range : Limited
Color primaries : BT.709
Transfer characteristics : BT.709
Matrix coefficients : BT.709

Audio
ID : 2
Format : AAC
Format/Info : Advanced Audio Codec
Format profile : LC
Codec ID : A_AAC-2
Duration : 30 min 44 s
Bit rate : 445 kb/s
Channel(s) : 6 channels
Channel positions : Front: L C R, Side: L R, LFE
Sampling rate : 48.0 kHz
Frame rate : 46.875 FPS (1024 SPF)
Compression mode : Lossy
Stream size : 98.0 MiB (7%)
Language : English
Default : Yes
Forced : No

Text
ID : 3
Format : UTF-8
Codec ID : S_TEXT/UTF8
Codec ID/Info : UTF-8 Plain Text
Duration : 30 min 33 s
Bit rate : 95 b/s
Count of elements : 637
Stream size : 21.4 KiB (0%)
Language : English
Default : No
Forced : No





I Hate Suzie S01E01


I Hate Suzie S01E01


I Hate Suzie S01E01


I Hate Suzie S01E01


I Hate Suzie S01E01