I Hate Suzie S01E02

TV Series
I Hate Suzie S01E02

I Hate Suzie S01E02
WEB-DL | MKV | 1920x1080 | English | H264 @ 3991 kbps | AAC @ 445 kbps | 34 min 11 s | 1.06 GiB
Subtitles: English
Genre: Comedy, Drama


Suzie Pickles, a star on the wane, has her whole life upended when her phone is hacked and a photo of her emerges in an extremely compromising position.

bff99b4994e25d66ea057b81736813f0.mkv (1.1 GB)



General
Unique ID : 211041530229592507629447860743786398609 (0x9EC51EC937E2A342A5E00705C5CF0391)
Complete name : ./bff99b4994e25d66ea057b81736813f0.mkv
Format : Matroska
Format version : Version 4 / Version 2
File size : 1.06 GiB
Duration : 34 min 11 s
Overall bit rate : 4 445 kb/s
Encoded date : UTC 2020-08-28 15:56:18
Writing application : mkvmerge v47.0.0 ('Black Flag') 64-bit
Writing library : libebml v1.3.10 + libmatroska v1.5.2

Video
ID : 1
Format : AVC
Format/Info : Advanced Video Codec
Format profile : High@L4
Format settings : CABAC / 4 Ref Frames
Format settings, CABAC : Yes
Format settings, RefFrames : 4 frames
Codec ID : V_MPEG4/ISO/AVC
Duration : 34 min 11 s
Bit rate : 3 991 kb/s
Width : 1 920 pixels
Height : 1 080 pixels
Display aspect ratio : 16:9
Frame rate mode : Constant
Frame rate : 25.000 FPS
Color space : YUV
Chroma subsampling : 4:2:0
Bit depth : 8 bits
Scan type : Progressive
Bits/(Pixel*Frame) : 0.077
Stream size : 976 MiB (90%)
Default : Yes
Forced : No
Color range : Limited
Color primaries : BT.709
Transfer characteristics : BT.709
Matrix coefficients : BT.709

Audio
ID : 2
Format : AAC
Format/Info : Advanced Audio Codec
Format profile : LC
Codec ID : A_AAC-2
Duration : 34 min 11 s
Bit rate : 445 kb/s
Channel(s) : 6 channels
Channel positions : Front: L C R, Side: L R, LFE
Sampling rate : 48.0 kHz
Frame rate : 46.875 FPS (1024 SPF)
Compression mode : Lossy
Stream size : 109 MiB (10%)
Language : English
Default : Yes
Forced : No

Text
ID : 3
Format : UTF-8
Codec ID : S_TEXT/UTF8
Codec ID/Info : UTF-8 Plain Text
Duration : 33 min 59 s
Bit rate : 97 b/s
Count of elements : 687
Stream size : 24.4 KiB (0%)
Language : English
Default : No
Forced : No





I Hate Suzie S01E02


I Hate Suzie S01E02


I Hate Suzie S01E02


I Hate Suzie S01E02


I Hate Suzie S01E02