I Hate Suzie S01E05

TV Series
I Hate Suzie S01E05

I Hate Suzie S01E05
WEB-DL | MKV | 1920x1080 | English | H264 @ 3885 kbps | AAC @ 445 kbps | 35 min 31 s | 1.08 GiB
Subtitles: English
Genre: Comedy, Drama


Suzie Pickles, a star on the wane, has her whole life upended when her phone is hacked and a photo of her emerges in an extremely compromising position.

190ee0129323870e9e2c03799723bcb0.mkv (1.1 GB)



General
Unique ID : 85288197937236561561704129696717066809 (0x4029E8D0789335DB80935B5A0363D239)
Complete name : ./190ee0129323870e9e2c03799723bcb0.mkv
Format : Matroska
Format version : Version 4 / Version 2
File size : 1.08 GiB
Duration : 35 min 31 s
Overall bit rate : 4 339 kb/s
Encoded date : UTC 2020-08-28 16:01:30
Writing application : mkvmerge v47.0.0 ('Black Flag') 64-bit
Writing library : libebml v1.3.10 + libmatroska v1.5.2

Video
ID : 1
Format : AVC
Format/Info : Advanced Video Codec
Format profile : High@L4
Format settings : CABAC / 4 Ref Frames
Format settings, CABAC : Yes
Format settings, RefFrames : 4 frames
Codec ID : V_MPEG4/ISO/AVC
Duration : 35 min 31 s
Bit rate : 3 885 kb/s
Width : 1 920 pixels
Height : 1 080 pixels
Display aspect ratio : 16:9
Frame rate mode : Constant
Frame rate : 25.000 FPS
Color space : YUV
Chroma subsampling : 4:2:0
Bit depth : 8 bits
Scan type : Progressive
Bits/(Pixel*Frame) : 0.075
Stream size : 987 MiB (90%)
Default : Yes
Forced : No
Color range : Limited
Color primaries : BT.709
Transfer characteristics : BT.709
Matrix coefficients : BT.709

Audio
ID : 2
Format : AAC
Format/Info : Advanced Audio Codec
Format profile : LC
Codec ID : A_AAC-2
Duration : 35 min 31 s
Bit rate : 445 kb/s
Channel(s) : 6 channels
Channel positions : Front: L C R, Side: L R, LFE
Sampling rate : 48.0 kHz
Frame rate : 46.875 FPS (1024 SPF)
Compression mode : Lossy
Stream size : 113 MiB (10%)
Language : English
Default : Yes
Forced : No

Text
ID : 3
Format : UTF-8
Codec ID : S_TEXT/UTF8
Codec ID/Info : UTF-8 Plain Text
Duration : 34 min 53 s
Bit rate : 88 b/s
Count of elements : 605
Stream size : 22.7 KiB (0%)
Language : English
Default : No
Forced : No





I Hate Suzie S01E05


I Hate Suzie S01E05


I Hate Suzie S01E05


I Hate Suzie S01E05


I Hate Suzie S01E05