I Hate Suzie S01E06

TV Series
I Hate Suzie S01E06

I Hate Suzie S01E06
WEB-DL | MKV | 1920x1080 | English | H264 @ 3809 kbps | AAC @ 445 kbps | 39 min 9 s | 1.17 GiB
Subtitles: English
Genre: Comedy, Drama


Suzie Pickles, a star on the wane, has her whole life upended when her phone is hacked and a photo of her emerges in an extremely compromising position.

c536cf036e9480b9e4c9596a4214c9b8.mkv (1.2 GB)



General
Unique ID : 274419945450303605710962212075538035936 (0xCE735BE9420E93975F85502FDF8134E0)
Complete name : ./c536cf036e9480b9e4c9596a4214c9b8.mkv
Format : Matroska
Format version : Version 4 / Version 2
File size : 1.17 GiB
Duration : 39 min 9 s
Overall bit rate : 4 263 kb/s
Encoded date : UTC 2020-08-28 16:03:13
Writing application : mkvmerge v47.0.0 ('Black Flag') 64-bit
Writing library : libebml v1.3.10 + libmatroska v1.5.2

Video
ID : 1
Format : AVC
Format/Info : Advanced Video Codec
Format profile : High@L4
Format settings : CABAC / 4 Ref Frames
Format settings, CABAC : Yes
Format settings, RefFrames : 4 frames
Codec ID : V_MPEG4/ISO/AVC
Duration : 39 min 9 s
Bit rate : 3 809 kb/s
Width : 1 920 pixels
Height : 1 080 pixels
Display aspect ratio : 16:9
Frame rate mode : Constant
Frame rate : 25.000 FPS
Color space : YUV
Chroma subsampling : 4:2:0
Bit depth : 8 bits
Scan type : Progressive
Bits/(Pixel*Frame) : 0.073
Stream size : 1.04 GiB (89%)
Default : Yes
Forced : No
Color range : Limited
Color primaries : BT.709
Transfer characteristics : BT.709
Matrix coefficients : BT.709

Audio
ID : 2
Format : AAC
Format/Info : Advanced Audio Codec
Format profile : LC
Codec ID : A_AAC-2
Duration : 39 min 9 s
Bit rate : 445 kb/s
Channel(s) : 6 channels
Channel positions : Front: L C R, Side: L R, LFE
Sampling rate : 48.0 kHz
Frame rate : 46.875 FPS (1024 SPF)
Compression mode : Lossy
Stream size : 125 MiB (10%)
Language : English
Default : Yes
Forced : No

Text
ID : 3
Format : UTF-8
Codec ID : S_TEXT/UTF8
Codec ID/Info : UTF-8 Plain Text
Duration : 38 min 56 s
Bit rate : 103 b/s
Count of elements : 788
Stream size : 29.5 KiB (0%)
Language : English
Default : No
Forced : No





I Hate Suzie S01E06


I Hate Suzie S01E06


I Hate Suzie S01E06


I Hate Suzie S01E06


I Hate Suzie S01E06