I Hate Suzie S01E07

TV Series
I Hate Suzie S01E07

I Hate Suzie S01E07
WEB-DL | MKV | 1920x1080 | English | H264 @ 4834 kbps | AAC @ 445 kbps | 32 min 29 s | 1.20 GiB
Subtitles: English
Genre: Comedy, Drama


Suzie Pickles, a star on the wane, has her whole life upended when her phone is hacked and a photo of her emerges in an extremely compromising position.

b213e9f26831a8b6448abc250c44b427.mkv (1.2 GB)



General
Unique ID : 203455470983013940729737743269422409098 (0x991019303072381A8A18E434E99FA58A)
Complete name : ./b213e9f26831a8b6448abc250c44b427.mkv
Format : Matroska
Format version : Version 4 / Version 2
File size : 1.20 GiB
Duration : 32 min 29 s
Overall bit rate : 5 289 kb/s
Encoded date : UTC 2020-08-28 16:04:57
Writing application : mkvmerge v47.0.0 ('Black Flag') 64-bit
Writing library : libebml v1.3.10 + libmatroska v1.5.2

Video
ID : 1
Format : AVC
Format/Info : Advanced Video Codec
Format profile : High@L4
Format settings : CABAC / 4 Ref Frames
Format settings, CABAC : Yes
Format settings, RefFrames : 4 frames
Codec ID : V_MPEG4/ISO/AVC
Duration : 32 min 29 s
Bit rate : 4 835 kb/s
Width : 1 920 pixels
Height : 1 080 pixels
Display aspect ratio : 16:9
Frame rate mode : Constant
Frame rate : 25.000 FPS
Color space : YUV
Chroma subsampling : 4:2:0
Bit depth : 8 bits
Scan type : Progressive
Bits/(Pixel*Frame) : 0.093
Stream size : 1.10 GiB (91%)
Default : Yes
Forced : No
Color range : Limited
Color primaries : BT.709
Transfer characteristics : BT.709
Matrix coefficients : BT.709

Audio
ID : 2
Format : AAC
Format/Info : Advanced Audio Codec
Format profile : LC
Codec ID : A_AAC-2
Duration : 32 min 29 s
Bit rate : 445 kb/s
Channel(s) : 6 channels
Channel positions : Front: L C R, Side: L R, LFE
Sampling rate : 48.0 kHz
Frame rate : 46.875 FPS (1024 SPF)
Compression mode : Lossy
Stream size : 104 MiB (8%)
Language : English
Default : Yes
Forced : No

Text
ID : 3
Format : UTF-8
Codec ID : S_TEXT/UTF8
Codec ID/Info : UTF-8 Plain Text
Duration : 31 min 54 s
Bit rate : 89 b/s
Count of elements : 624
Stream size : 20.8 KiB (0%)
Language : English
Default : No
Forced : No





I Hate Suzie S01E07


I Hate Suzie S01E07


I Hate Suzie S01E07


I Hate Suzie S01E07


I Hate Suzie S01E07