Isi & Ossi (2020)

Video
Isi & Ossi (2020)

Isi & Ossi (2020)
WEB-DL | MKV | 1920x1080 | English | H264 @ 2288 kbps | E-AC-3 @ 640 kbps | 1 h 53 min | 2.36 GiB
Genre: Comedy, Romance

Isi and Ossi couldn't be any more different: She's a billionaire's daughter from Heidelberg, he's a struggling boxer from the nearby town of Mannheim. But when Isi meets Ossi, the two quickly realize that they can take advantage of one another: She dates the broke boxer to provoke her parents and get them to fund a long-desired chef training in New York. He tries to rip off the rich daughter to finance his first professional boxing match. Their plans soon develop into emotional chaos that challenges everything the two believe to know about money, career and love.

fb87bd5547ab42ecb196adf1c0315945.mkv (2.4 GB)



General
Unique ID : 215867252983469903500459170481945580129 (0xA266854989AE06919D960E11DE661261)
Complete name : ./fb87bd5547ab42ecb196adf1c0315945.mkv
Format : Matroska
Format version : Version 4 / Version 2
File size : 2.36 GiB
Duration : 1 h 53 min
Overall bit rate : 2 988 kb/s
Movie name : EVO
Encoded date : UTC 2020-02-15 01:55:36
Writing application : mkvmerge v6.7.0 ('Back to the Ground') 64bit built on Jan 8 2014 15:10:52
Writing library : libebml v1.3.0 + libmatroska v1.4.1

Video
ID : 1
Format : AVC
Format/Info : Advanced Video Codec
Format profile : High@L4
Format settings : CABAC / 3 Ref Frames
Format settings, CABAC : Yes
Format settings, RefFrames : 3 frames
Codec ID : V_MPEG4/ISO/AVC
Duration : 1 h 53 min
Bit rate : 2 289 kb/s
Width : 1 920 pixels
Height : 1 080 pixels
Display aspect ratio : 16:9
Frame rate mode : Constant
Frame rate : 24.000 FPS
Color space : YUV
Chroma subsampling : 4:2:0
Bit depth : 8 bits
Scan type : Progressive
Bits/(Pixel*Frame) : 0.046
Stream size : 1.81 GiB (77%)
Default : Yes
Forced : No

Audio
ID : 2
Format : E-AC-3
Format/Info : Enhanced Audio Coding 3
Format settings, Endianness : Big
Codec ID : A_EAC3
Duration : 1 h 53 min
Bit rate mode : Constant
Bit rate : 640 kb/s
Channel(s) : 2 channels
Channel(s)_Original : 6 channels
Channel positions : Front: L C R, Side: L R, LFE
Sampling rate : 48.0 kHz
Frame rate : 187.500 FPS (256 SPF)
Compression mode : Lossy
Delay relative to video : -19 ms
Stream size : 519 MiB (21%)
Language : English
Service kind : Complete Main
Default : Yes
Forced : No





Isi & Ossi (2020)


Isi & Ossi (2020)


Isi & Ossi (2020)


Isi & Ossi (2020)


Isi & Ossi (2020)