Cadaver (2020)

Video
Cadaver (2020)

Cadaver (2020)
WEBRip | MKV | 1920x1080 | English | H264 @ 6022 kbps | E-AC-3 @ 640 kbps | 1 h 26 min | 4.05 GiB
Subtitles: Nederlands
Genre: Drama, Horror, Thriller

In the aftermath of a nuclear disaster, a starving family find hope in a charismatic hotel owner. Lured by the prospect of a free dinner, they discover that the evening's entertainment blurs the lines between performance and reality. Will they wind up the spectators or the spectacle?

Kadaver.2020.MULTi.1080p.WEB.DD+5.1.NLSub.mkv (4.0 GB)



General
Unique ID : 114911524745504588027276923332782150647 (0x56732796E5A4E1F9E1C5AA00EF8B53F7)
Complete name : ./Kadaver.2020.MULTi.1080p.WEB.DD+5.1.NLSub.mkv
Format : Matroska
Format version : Version 4 / Version 2
File size : 4.05 GiB
Duration : 1 h 26 min
Overall bit rate : 6 663 kb/s
Encoded date : UTC 2020-10-22 10:17:56
Writing application : mkvmerge v50.0.0 ('Awakenings') 64-bit
Writing library : libebml v1.4.0 + libmatroska v1.6.2

Video
ID : 1
Format : AVC
Format/Info : Advanced Video Codec
Format profile : High@L4
Format settings : CABAC / 2 Ref Frames
Format settings, CABAC : Yes
Format settings, RefFrames : 2 frames
Codec ID : V_MPEG4/ISO/AVC
Duration : 1 h 26 min
Bit rate : 6 023 kb/s
Width : 1 920 pixels
Height : 1 080 pixels
Display aspect ratio : 16:9
Frame rate mode : Constant
Frame rate : 24.000 FPS
Original frame rate : 23.976 (24000/1001) FPS
Color space : YUV
Chroma subsampling : 4:2:0
Bit depth : 8 bits
Scan type : Progressive
Bits/(Pixel*Frame) : 0.121
Stream size : 3.66 GiB (90%)
Language : English
Default : Yes
Forced : No

Audio
ID : 2
Format : E-AC-3
Format/Info : Enhanced Audio Coding 3
Format settings, Endianness : Big
Codec ID : A_EAC3
Duration : 1 h 26 min
Bit rate mode : Constant
Bit rate : 640 kb/s
Channel(s) : 6 channels
Channel positions : Front: L C R, Side: L R, LFE
Sampling rate : 48.0 kHz
Frame rate : 187.500 FPS (256 SPF)
Compression mode : Lossy
Stream size : 398 MiB (10%)
Title : English
Language : English
Service kind : Complete Main
Default : Yes
Forced : No

Text
ID : 3
Format : UTF-8
Codec ID : S_TEXT/UTF8
Codec ID/Info : UTF-8 Plain Text
Duration : 1 h 25 min
Bit rate : 22 b/s
Count of elements : 608
Stream size : 14.2 KiB (0%)
Language : Dutch
Default : Yes
Forced : No





Cadaver (2020)


Cadaver (2020)


Cadaver (2020)


Cadaver (2020)


Cadaver (2020)