Magic for Humans S01E01

TV Series
Magic for Humans S01E01

Magic for Humans S01E01
WEBRip | MKV | 1280x720 | English | H264 @ 3320 kbps | E-AC-3 @ 640 kbps | 25 min 9 s | 700 MiB
Subtitles: ภาษาไทย, Français, Español, 日本語, עברית, 한국어, Русский, Ελληνικά, Nederlands, Dansk, Bahasa Indonesia, 中文, Suomi, Polski, Türkçe, English, Română, العربية, Deutsch, Svenska, Italiano, Português
Genre: Comedy


From baffling people on the street to orchestrating elaborate tricks, Justin Willman blends good-natured magic with grown-up laughs.

83de39d24ba94a75a747886620047d1b.mkv (699.7 MB)



General
Unique ID : 14627206082308100388927609547146478962 (0xB0118F07EBEFC933FA011D219FD4572)
Complete name : ./83de39d24ba94a75a747886620047d1b.mkv
Format : Matroska
Format version : Version 4 / Version 2
File size : 700 MiB
Duration : 25 min 9 s
Overall bit rate mode : Variable
Overall bit rate : 3 887 kb/s
Encoded date : UTC 2019-12-29 15:15:15
Writing application : mkvmerge v40.0.0 ('Old Town Road + Pony') 64-bit
Writing library : libebml v1.3.9 + libmatroska v1.5.2

Video
ID : 1
Format : AVC
Format/Info : Advanced Video Codec
Format profile : Main@L3.1
Format settings : CABAC / 3 Ref Frames
Format settings, CABAC : Yes
Format settings, RefFrames : 3 frames
Codec ID : V_MPEG4/ISO/AVC
Duration : 25 min 9 s
Bit rate mode : Variable
Bit rate : 3 320 kb/s
Maximum bit rate : 4 980 kb/s
Width : 1 280 pixels
Height : 720 pixels
Display aspect ratio : 16:9
Frame rate mode : Constant
Frame rate : 23.976 (24000/1001) FPS
Color space : YUV
Chroma subsampling : 4:2:0
Bit depth : 8 bits
Scan type : Progressive
Bits/(Pixel*Frame) : 0.150
Stream size : 583 MiB (83%)
Writing library : x264 core 148 r2715 7e75228
Encoding settings : cabac=1 / ref=3 / deblock=1:0:0 / analyse=0x1:0x111 / me=umh / subme=10 / psy=1 / psy_rd=1.00:0.00 / mixed_ref=1 / me_range=24 / chroma_me=1 / trellis=2 / 8x8dct=0 / cqm=0 / deadzone=21,11 / fast_pskip=1 / chroma_qp_offset=-2 / threads=6 / lookahead_threads=1 / sliced_threads=0 / nr=0 / decimate=1 / interlaced=0 / bluray_compat=0 / stitchable=1 / constrained_intra=0 / bframes=2 / b_pyramid=0 / b_adapt=2 / b_bias=0 / direct=3 / weightb=1 / open_gop=0 / weightp=2 / keyint=48 / keyint_min=25 / scenecut=0 / intra_refresh=0 / rc_lookahead=48 / rc=2pass / mbtree=1 / bitrate=3320 / ratetol=1.0 / qcomp=0.50 / qpmin=6 / qpmax=51 / qpstep=4 / cplxblur=20.0 / qblur=0.5 / vbv_maxrate=4980 / vbv_bufsize=6640 / nal_hrd=vbr / filler=0 / ip_ratio=1.40 / aq=1:1.00
Default : Yes
Forced : No

Audio
ID : 2
Format : E-AC-3
Format/Info : Enhanced Audio Coding 3
Format settings, Endianness : Big
Codec ID : A_EAC3
Duration : 25 min 9 s
Bit rate mode : Constant
Bit rate : 640 kb/s
Channel(s) : 6 channels
Channel positions : Front: L C R, Side: L R, LFE
Sampling rate : 48.0 kHz
Frame rate : 187.500 FPS (256 SPF)
Compression mode : Lossy
Stream size : 115 MiB (16%)
Title : English
Language : English
Service kind : Complete Main
Default : Yes
Forced : No

Text #1
ID : 3
Format : UTF-8
Codec ID : S_TEXT/UTF8
Codec ID/Info : UTF-8 Plain Text
Duration : 4 min 29 s
Bit rate : 4 b/s
Count of elements : 3
Stream size : 149 Bytes (0%)
Title : English [Forced]
Language : English
Default : No
Forced : Yes

Text #2
ID : 4
Format : UTF-8
Codec ID : S_TEXT/UTF8
Codec ID/Info : UTF-8 Plain Text
Duration : 24 min 16 s
Bit rate : 83 b/s
Count of elements : 454
Stream size : 14.8 KiB (0%)
Title : English
Language : English
Default : No
Forced : No

Text #3
ID : 5
Format : UTF-8
Codec ID : S_TEXT/UTF8
Codec ID/Info : UTF-8 Plain Text
Duration : 24 min 23 s
Bit rate : 128 b/s
Count of elements : 443
Stream size : 22.9 KiB (0%)
Title : Arabic
Language : Arabic
Default : No
Forced : No

Text #4
ID : 6
Format : UTF-8
Codec ID : S_TEXT/UTF8
Codec ID/Info : UTF-8 Plain Text
Duration : 24 min 25 s
Bit rate : 70 b/s
Count of elements : 441
Stream size : 12.6 KiB (0%)
Title : European Spanish
Language : Spanish
Default : No
Forced : No

Text #5
ID : 7
Format : UTF-8
Codec ID : S_TEXT/UTF8
Codec ID/Info : UTF-8 Plain Text
Duration : 24 min 23 s
Bit rate : 78 b/s
Count of elements : 439
Stream size : 14.0 KiB (0%)
Title : Spanish
Language : Spanish
Default : No
Forced : No

Text #6
ID : 8
Format : UTF-8
Codec ID : S_TEXT/UTF8
Codec ID/Info : UTF-8 Plain Text
Duration : 24 min 23 s
Bit rate : 75 b/s
Count of elements : 431
Stream size : 13.4 KiB (0%)
Title : French
Language : French
Default : No
Forced : No

Text #7
ID : 9
Format : UTF-8
Codec ID : S_TEXT/UTF8
Codec ID/Info : UTF-8 Plain Text
Duration : 24 min 23 s
Bit rate : 71 b/s
Count of elements : 422
Stream size : 12.8 KiB (0%)
Title : German
Language : German
Default : No
Forced : No

Text #8
ID : 10
Format : UTF-8
Codec ID : S_TEXT/UTF8
Codec ID/Info : UTF-8 Plain Text
Duration : 24 min 20 s
Bit rate : 68 b/s
Count of elements : 413
Stream size : 12.3 KiB (0%)
Title : Italian
Language : Italian
Default : No
Forced : No

Text #9
ID : 11
Format : UTF-8
Codec ID : S_TEXT/UTF8
Codec ID/Info : UTF-8 Plain Text
Duration : 24 min 23 s
Bit rate : 75 b/s
Count of elements : 435
Stream size : 13.4 KiB (0%)
Title : Portuguese
Language : Portuguese
Default : No
Forced : No

Text #10
ID : 12
Format : UTF-8
Codec ID : S_TEXT/UTF8
Codec ID/Info : UTF-8 Plain Text
Duration : 24 min 23 s
Bit rate : 71 b/s
Count of elements : 441
Stream size : 12.8 KiB (0%)
Title : Brazilian Portuguese
Language : Portuguese
Default : No
Forced : No

Text #11
ID : 13
Format : UTF-8
Codec ID : S_TEXT/UTF8
Codec ID/Info : UTF-8 Plain Text
Duration : 24 min 23 s
Bit rate : 69 b/s
Count of elements : 422
Stream size : 12.4 KiB (0%)
Title : Polish
Language : Polish
Default : No
Forced : No

Text #12
ID : 14
Format : UTF-8
Codec ID : S_TEXT/UTF8
Codec ID/Info : UTF-8 Plain Text
Duration : 24 min 23 s
Bit rate : 71 b/s
Count of elements : 438
Stream size : 12.7 KiB (0%)
Title : Turkish
Language : Turkish
Default : No
Forced : No

Text #13
ID : 15
Format : UTF-8
Codec ID : S_TEXT/UTF8
Codec ID/Info : UTF-8 Plain Text
Duration : 24 min 21 s
Bit rate : 67 b/s
Count of elements : 428
Stream size : 12.0 KiB (0%)
Title : Swedish
Language : Swedish
Default : No
Forced : No

Text #14
ID : 16
Format : UTF-8
Codec ID : S_TEXT/UTF8
Codec ID/Info : UTF-8 Plain Text
Duration : 24 min 23 s
Bit rate : 70 b/s
Count of elements : 438
Stream size : 12.5 KiB (0%)
Title : Danish
Language : Danish
Default : No
Forced : No

Text #15
ID : 17
Format : UTF-8
Codec ID : S_TEXT/UTF8
Codec ID/Info : UTF-8 Plain Text
Duration : 24 min 23 s
Bit rate : 71 b/s
Count of elements : 419
Stream size : 12.9 KiB (0%)
Title : Finnish
Language : Finnish
Default : No
Forced : No

Text #16
ID : 18
Format : UTF-8
Codec ID : S_TEXT/UTF8
Codec ID/Info : UTF-8 Plain Text
Duration : 24 min 23 s
Bit rate : 61 b/s
Count of elements : 396
Stream size : 10.9 KiB (0%)
Title : Dutch
Language : Dutch
Default : No
Forced : No

Text #17
ID : 19
Format : UTF-8
Codec ID : S_TEXT/UTF8
Codec ID/Info : UTF-8 Plain Text
Duration : 24 min 21 s
Bit rate : 71 b/s
Count of elements : 430
Stream size : 12.7 KiB (0%)
Title : Norwegian
Language : Norwegian
Default : No
Forced : No

Text #18
ID : 20
Format : UTF-8
Codec ID : S_TEXT/UTF8
Codec ID/Info : UTF-8 Plain Text
Duration : 24 min 10 s
Bit rate : 111 b/s
Count of elements : 451
Stream size : 19.7 KiB (0%)
Title : Russian
Language : Russian
Default : No
Forced : No

Text #19
ID : 21
Format : UTF-8
Codec ID : S_TEXT/UTF8
Codec ID/Info : UTF-8 Plain Text
Duration : 24 min 23 s
Bit rate : 112 b/s
Count of elements : 433
Stream size : 20.1 KiB (0%)
Title : Greek
Language : Greek
Default : No
Forced : No

Text #20
ID : 22
Format : UTF-8
Codec ID : S_TEXT/UTF8
Codec ID/Info : UTF-8 Plain Text
Duration : 24 min 20 s
Bit rate : 123 b/s
Count of elements : 421
Stream size : 22.0 KiB (0%)
Title : Hebrew
Language : Hebrew
Default : No
Forced : No

Text #21
ID : 23
Format : UTF-8
Codec ID : S_TEXT/UTF8
Codec ID/Info : UTF-8 Plain Text
Duration : 24 min 23 s
Bit rate : 69 b/s
Count of elements : 418
Stream size : 12.5 KiB (0%)
Title : Romanian
Language : Romanian
Default : No
Forced : No

Text #22
ID : 24
Format : UTF-8
Codec ID : S_TEXT/UTF8
Codec ID/Info : UTF-8 Plain Text
Duration : 24 min 23 s
Bit rate : 82 b/s
Count of elements : 442
Stream size : 14.8 KiB (0%)
Title : Indonesian
Language : Indonesian
Default : No
Forced : No

Text #23
ID : 25
Format : UTF-8
Codec ID : S_TEXT/UTF8
Codec ID/Info : UTF-8 Plain Text
Duration : 24 min 23 s
Bit rate : 179 b/s
Count of elements : 441
Stream size : 32.0 KiB (0%)
Title : Thai
Language : Thai
Default : No
Forced : No

Text #24
ID : 26
Format : UTF-8
Codec ID : S_TEXT/UTF8
Codec ID/Info : UTF-8 Plain Text
Duration : 24 min 23 s
Bit rate : 83 b/s
Count of elements : 442
Stream size : 14.8 KiB (0%)
Title : Korean
Language : Korean
Default : No
Forced : No

Text #25
ID : 27
Format : UTF-8
Codec ID : S_TEXT/UTF8
Codec ID/Info : UTF-8 Plain Text
Duration : 24 min 23 s
Bit rate : 66 b/s
Count of elements : 447
Stream size : 11.9 KiB (0%)
Title : Chinese (Simplified)
Language : Chinese
Default : No
Forced : No

Text #26
ID : 28
Format : UTF-8
Codec ID : S_TEXT/UTF8
Codec ID/Info : UTF-8 Plain Text
Duration : 24 min 23 s
Bit rate : 74 b/s
Count of elements : 443
Stream size : 13.3 KiB (0%)
Title : Chinese (Traditional)
Language : Chinese
Default : No
Forced : No

Text #27
ID : 29
Format : UTF-8
Codec ID : S_TEXT/UTF8
Codec ID/Info : UTF-8 Plain Text
Duration : 24 min 23 s
Bit rate : 64 b/s
Count of elements : 471
Stream size : 11.4 KiB (0%)
Title : Japanese
Language : Japanese
Default : No
Forced : No





Magic for Humans S01E01


Magic for Humans S01E01


Magic for Humans S01E01


Magic for Humans S01E01


Magic for Humans S01E01