Matchday: Inside FC Barcelona S01E05

TV Series
Matchday: Inside FC Barcelona S01E05

Matchday: Inside FC Barcelona S01E05
WEB-DL | MKV | 1920x1080 | English | H264 @ 5500 kbps | E-AC-3 @ 256 kbps | 40 min 3 s | 1.56 GiB
Subtitles: Hrvatski, Français, Español, Eesti keel, Slovenčina, Русский, Srpski, Ελληνικά, Nederlands, Dansk, Български, Українська, Suomi, Polski, Magyar, English, Română, Slovenščina, Deutsch, Makedonski jazik, Svenska, Italiano, Português, Čeština
Genre: Documentary


Inside FC Barcelona, which follows the famed soccer club through its 2018-2019 season.

fbb3f54c32decfd878871e794f6a2aa1.mkv (1.6 GB)



General
Unique ID : 272107709911389623371069605767364264035 (0xCCB609E5BBA8D41C56A4AABC785CC063)
Complete name : ./fbb3f54c32decfd878871e794f6a2aa1.mkv
Format : Matroska
Format version : Version 4 / Version 2
File size : 1.56 GiB
Duration : 40 min 3 s
Overall bit rate : 5 572 kb/s
Encoded date : UTC 2020-01-02 20:42:29
Writing application : mkvmerge v42.0.0 ('Overtime') 64-bit
Writing library : libebml v1.3.10 + libmatroska v1.5.2

Video
ID : 1
Format : AVC
Format/Info : Advanced Video Codec
Format profile : Main@L4
Format settings : CABAC / 4 Ref Frames
Format settings, CABAC : Yes
Format settings, RefFrames : 4 frames
Codec ID : V_MPEG4/ISO/AVC
Duration : 40 min 3 s
Bit rate : 5 500 kb/s
Width : 1 920 pixels
Height : 1 080 pixels
Display aspect ratio : 16:9
Frame rate mode : Constant
Frame rate : 25.000 FPS
Color space : YUV
Chroma subsampling : 4:2:0
Bit depth : 8 bits
Scan type : Progressive
Bits/(Pixel*Frame) : 0.106
Stream size : 1.49 GiB (95%)
Writing library : x264 core 148
Encoding settings : cabac=1 / ref=4 / deblock=1:-1:-1 / analyse=0x1:0x111 / me=hex / subme=6 / psy=1 / psy_rd=1.00:0.15 / mixed_ref=1 / me_range=16 / chroma_me=1 / trellis=1 / 8x8dct=0 / cqm=0 / deadzone=21,11 / fast_pskip=1 / chroma_qp_offset=-3 / threads=12 / lookahead_threads=2 / sliced_threads=0 / nr=0 / decimate=1 / interlaced=0 / bluray_compat=0 / constrained_intra=0 / bframes=3 / b_pyramid=2 / b_adapt=1 / b_bias=0 / direct=1 / weightb=1 / open_gop=0 / weightp=1 / keyint=50 / keyint_min=25 / scenecut=0 / intra_refresh=0 / rc_lookahead=30 / rc=cbr / mbtree=1 / bitrate=5500 / ratetol=1.0 / qcomp=0.60 / qpmin=0 / qpmax=69 / qpstep=4 / vbv_maxrate=5500 / vbv_bufsize=11000 / nal_hrd=none / filler=0 / ip_ratio=1.40 / aq=1:1.00
Default : Yes
Forced : No

Audio
ID : 2
Format : E-AC-3
Format/Info : Enhanced Audio Coding 3
Format settings, Endianness : Big
Codec ID : A_EAC3
Duration : 40 min 3 s
Bit rate mode : Constant
Bit rate : 256 kb/s
Channel(s) : 6 channels
Channel positions : Front: L C R, Side: L R, LFE
Sampling rate : 48.0 kHz
Frame rate : 187.500 FPS (256 SPF)
Compression mode : Lossy
Stream size : 73.3 MiB (5%)
Language : English
Service kind : Complete Main
Default : Yes
Forced : No

Text #1
ID : 3
Format : UTF-8
Codec ID : S_TEXT/UTF8
Codec ID/Info : UTF-8 Plain Text
Duration : 39 min 39 s
Bit rate : 152 b/s
Count of elements : 690
Stream size : 44.2 KiB (0%)
Language : Bulgarian
Default : No
Forced : No

Text #2
ID : 4
Format : UTF-8
Codec ID : S_TEXT/UTF8
Codec ID/Info : UTF-8 Plain Text
Duration : 39 min 39 s
Bit rate : 80 b/s
Count of elements : 536
Stream size : 23.5 KiB (0%)
Language : Spanish
Default : No
Forced : No

Text #3
ID : 5
Format : UTF-8
Codec ID : S_TEXT/UTF8
Codec ID/Info : UTF-8 Plain Text
Duration : 39 min 39 s
Bit rate : 92 b/s
Count of elements : 685
Stream size : 26.9 KiB (0%)
Language : Czech
Default : No
Forced : No

Text #4
ID : 6
Format : UTF-8
Codec ID : S_TEXT/UTF8
Codec ID/Info : UTF-8 Plain Text
Duration : 39 min 39 s
Bit rate : 93 b/s
Count of elements : 683
Stream size : 27.1 KiB (0%)
Language : Danish
Default : No
Forced : No

Text #5
ID : 7
Format : UTF-8
Codec ID : S_TEXT/UTF8
Codec ID/Info : UTF-8 Plain Text
Duration : 39 min 39 s
Bit rate : 82 b/s
Count of elements : 625
Stream size : 24.0 KiB (0%)
Language : German
Default : No
Forced : No

Text #6
ID : 8
Format : UTF-8
Codec ID : S_TEXT/UTF8
Codec ID/Info : UTF-8 Plain Text
Duration : 39 min 39 s
Bit rate : 173 b/s
Count of elements : 690
Stream size : 50.5 KiB (0%)
Language : Greek
Default : No
Forced : No

Text #7
ID : 9
Format : UTF-8
Codec ID : S_TEXT/UTF8
Codec ID/Info : UTF-8 Plain Text
Duration : 38 min 12 s
Bit rate : 79 b/s
Count of elements : 527
Stream size : 22.1 KiB (0%)
Language : English
Default : Yes
Forced : Yes

Text #8
ID : 10
Format : UTF-8
Codec ID : S_TEXT/UTF8
Codec ID/Info : UTF-8 Plain Text
Duration : 39 min 39 s
Bit rate : 82 b/s
Count of elements : 684
Stream size : 24.0 KiB (0%)
Language : Estonian
Default : No
Forced : No

Text #9
ID : 11
Format : UTF-8
Codec ID : S_TEXT/UTF8
Codec ID/Info : UTF-8 Plain Text
Duration : 39 min 39 s
Bit rate : 77 b/s
Count of elements : 683
Stream size : 22.5 KiB (0%)
Language : Finnish
Default : No
Forced : No

Text #10
ID : 12
Format : UTF-8
Codec ID : S_TEXT/UTF8
Codec ID/Info : UTF-8 Plain Text
Duration : 39 min 39 s
Bit rate : 90 b/s
Count of elements : 673
Stream size : 26.4 KiB (0%)
Language : French
Default : No
Forced : No

Text #11
ID : 13
Format : UTF-8
Codec ID : S_TEXT/UTF8
Codec ID/Info : UTF-8 Plain Text
Duration : 39 min 39 s
Bit rate : 82 b/s
Count of elements : 687
Stream size : 23.9 KiB (0%)
Language : Croatian
Default : No
Forced : No

Text #12
ID : 14
Format : UTF-8
Codec ID : S_TEXT/UTF8
Codec ID/Info : UTF-8 Plain Text
Duration : 39 min 39 s
Bit rate : 93 b/s
Count of elements : 685
Stream size : 27.3 KiB (0%)
Language : Hungarian
Default : No
Forced : No

Text #13
ID : 15
Format : UTF-8
Codec ID : S_TEXT/UTF8
Codec ID/Info : UTF-8 Plain Text
Duration : 39 min 39 s
Bit rate : 93 b/s
Count of elements : 685
Stream size : 27.1 KiB (0%)
Language : Italian
Default : No
Forced : No

Text #14
ID : 16
Format : UTF-8
Codec ID : S_TEXT/UTF8
Codec ID/Info : UTF-8 Plain Text
Duration : 39 min 39 s
Bit rate : 88 b/s
Count of elements : 690
Stream size : 25.7 KiB (0%)
Language : Latin
Default : No
Forced : No

Text #15
ID : 17
Format : UTF-8
Codec ID : S_TEXT/UTF8
Codec ID/Info : UTF-8 Plain Text
Duration : 39 min 39 s
Bit rate : 83 b/s
Count of elements : 688
Stream size : 24.1 KiB (0%)
Language : Lithuanian
Default : No
Forced : No

Text #16
ID : 18
Format : UTF-8
Codec ID : S_TEXT/UTF8
Codec ID/Info : UTF-8 Plain Text
Duration : 39 min 39 s
Bit rate : 145 b/s
Count of elements : 690
Stream size : 42.4 KiB (0%)
Language : Macedonian
Default : No
Forced : No

Text #17
ID : 19
Format : UTF-8
Codec ID : S_TEXT/UTF8
Codec ID/Info : UTF-8 Plain Text
Duration : 39 min 39 s
Bit rate : 96 b/s
Count of elements : 684
Stream size : 28.0 KiB (0%)
Language : Dutch
Default : No
Forced : No

Text #18
ID : 20
Format : UTF-8
Codec ID : S_TEXT/UTF8
Codec ID/Info : UTF-8 Plain Text
Duration : 39 min 39 s
Bit rate : 89 b/s
Count of elements : 683
Stream size : 26.0 KiB (0%)
Language : Norwegian
Default : No
Forced : No

Text #19
ID : 21
Format : UTF-8
Codec ID : S_TEXT/UTF8
Codec ID/Info : UTF-8 Plain Text
Duration : 39 min 39 s
Bit rate : 96 b/s
Count of elements : 683
Stream size : 27.9 KiB (0%)
Language : Polish
Default : No
Forced : No

Text #20
ID : 22
Format : UTF-8
Codec ID : S_TEXT/UTF8
Codec ID/Info : UTF-8 Plain Text
Duration : 39 min 39 s
Bit rate : 80 b/s
Count of elements : 660
Stream size : 23.5 KiB (0%)
Language : Portuguese
Default : No
Forced : No

Text #21
ID : 23
Format : UTF-8
Codec ID : S_TEXT/UTF8
Codec ID/Info : UTF-8 Plain Text
Duration : 39 min 39 s
Bit rate : 96 b/s
Count of elements : 685
Stream size : 27.9 KiB (0%)
Language : Romanian
Default : No
Forced : No

Text #22
ID : 24
Format : UTF-8
Codec ID : S_TEXT/UTF8
Codec ID/Info : UTF-8 Plain Text
Duration : 39 min 39 s
Bit rate : 151 b/s
Count of elements : 690
Stream size : 44.0 KiB (0%)
Language : Russian
Default : No
Forced : No

Text #23
ID : 25
Format : UTF-8
Codec ID : S_TEXT/UTF8
Codec ID/Info : UTF-8 Plain Text
Duration : 39 min 39 s
Bit rate : 86 b/s
Count of elements : 685
Stream size : 25.0 KiB (0%)
Language : Slovak
Default : No
Forced : No

Text #24
ID : 26
Format : UTF-8
Codec ID : S_TEXT/UTF8
Codec ID/Info : UTF-8 Plain Text
Duration : 39 min 39 s
Bit rate : 87 b/s
Count of elements : 686
Stream size : 25.3 KiB (0%)
Language : Slovenian
Default : No
Forced : No

Text #25
ID : 27
Format : UTF-8
Codec ID : S_TEXT/UTF8
Codec ID/Info : UTF-8 Plain Text
Duration : 39 min 39 s
Bit rate : 69 b/s
Count of elements : 459
Stream size : 20.3 KiB (0%)
Language : Spanish
Default : No
Forced : No

Text #26
ID : 28
Format : UTF-8
Codec ID : S_TEXT/UTF8
Codec ID/Info : UTF-8 Plain Text
Duration : 39 min 39 s
Bit rate : 93 b/s
Count of elements : 687
Stream size : 27.1 KiB (0%)
Language : Albanian
Default : No
Forced : No

Text #27
ID : 29
Format : UTF-8
Codec ID : S_TEXT/UTF8
Codec ID/Info : UTF-8 Plain Text
Duration : 39 min 39 s
Bit rate : 85 b/s
Count of elements : 686
Stream size : 24.8 KiB (0%)
Language : Serbian
Default : No
Forced : No

Text #28
ID : 30
Format : UTF-8
Codec ID : S_TEXT/UTF8
Codec ID/Info : UTF-8 Plain Text
Duration : 39 min 39 s
Bit rate : 85 b/s
Count of elements : 680
Stream size : 24.8 KiB (0%)
Language : Swedish
Default : No
Forced : No

Text #29
ID : 31
Format : UTF-8
Codec ID : S_TEXT/UTF8
Codec ID/Info : UTF-8 Plain Text
Duration : 39 min 39 s
Bit rate : 141 b/s
Count of elements : 690
Stream size : 41.0 KiB (0%)
Language : Ukrainian
Default : No
Forced : No





Matchday: Inside FC Barcelona S01E05


Matchday: Inside FC Barcelona S01E05


Matchday: Inside FC Barcelona S01E05


Matchday: Inside FC Barcelona S01E05


Matchday: Inside FC Barcelona S01E05