Monsterland S01E01

TV Series
Monsterland S01E01

Monsterland S01E01
WEB-DL | MKV | 3840x2160 | English | H265 @ 14844 kbps | E-AC-3 @ 256 kbps | 52 min 38 s | 5.67 GiB
Subtitles: Español, English


In this fantasy anthology series, encounters with mermaids, fallen angels and other strange beasts drive broken people to desperate acts in an attempt to repair their lives, ultimately showing there is a thin line between man and beast.

246905a73e83ff15962653a76c5bf3f0.mkv (5.7 GB)



General
Unique ID : 275282283436330050527918473606839430035 (0xCF197074D8A3ACE529E6DA918B586B93)
Complete name : ./246905a73e83ff15962653a76c5bf3f0.mkv
Format : Matroska
Format version : Version 4 / Version 2
File size : 5.67 GiB
Duration : 52 min 38 s
Overall bit rate : 15.4 Mb/s
Writing application : mkvmerge v21.0.0 ('Tardigrades Will Inherit The Earth') 64-bit
Writing library : libebml v1.3.5 + libmatroska v1.4.8

Video
ID : 1
Format : HEVC
Format/Info : High Efficiency Video Coding
Format profile : Main 10@L5.1@Main
Codec ID : V_MPEGH/ISO/HEVC
Duration : 52 min 38 s
Bit rate : 14.8 Mb/s
Width : 3 840 pixels
Height : 2 160 pixels
Display aspect ratio : 16:9
Frame rate mode : Constant
Frame rate : 23.976 (24000/1001) FPS
Color space : YUV
Chroma subsampling : 4:2:0
Bit depth : 10 bits
Bits/(Pixel*Frame) : 0.075
Stream size : 5.46 GiB (96%)
Default : Yes
Forced : No
Statistics Tags Issue : mkvmerge v21.0.0 ('Tardigrades Will Inherit The Earth') 64-bit 2020-10-02 04:15:05 / mkvmerge v21.0.0 ('Tardigrades Will Inherit The Earth') 64-bit
FromStats_BitRate : 15149134
FromStats_Duration : 00:52:38.698000000
FromStats_FrameCount : 75733
FromStats_StreamSize : 5981442491

Audio
ID : 2
Format : E-AC-3
Format/Info : Enhanced Audio Coding 3
Format settings, Endianness : Big
Codec ID : A_EAC3
Duration : 52 min 38 s
Bit rate mode : Constant
Bit rate : 256 kb/s
Channel(s) : 6 channels
Channel positions : Front: L C R, Side: L R, LFE
Sampling rate : 48.0 kHz
Frame rate : 187.500 FPS (256 SPF)
Compression mode : Lossy
Stream size : 96.4 MiB (2%)
Language : English
Service kind : Complete Main
Default : Yes
Forced : No
Statistics Tags Issue : mkvmerge v21.0.0 ('Tardigrades Will Inherit The Earth') 64-bit 2020-10-02 04:15:05 / mkvmerge v21.0.0 ('Tardigrades Will Inherit The Earth') 64-bit
FromStats_BitRate : 256000
FromStats_Duration : 00:52:38.816000000
FromStats_FrameCount : 98713
FromStats_StreamSize : 101082112

Text #1
ID : 3
Format : UTF-8
Codec ID : S_TEXT/UTF8
Codec ID/Info : UTF-8 Plain Text
Title : SDH
Language : English
Default : No
Forced : No
Statistics Tags Issue : mkvmerge v21.0.0 ('Tardigrades Will Inherit The Earth') 64-bit 2020-10-02 04:15:05 / mkvmerge v21.0.0 ('Tardigrades Will Inherit The Earth') 64-bit
FromStats_BitRate : 49
FromStats_Duration : 00:51:29.131000000
FromStats_FrameCount : 661
FromStats_StreamSize : 18994

Text #2
ID : 4
Format : UTF-8
Codec ID : S_TEXT/UTF8
Codec ID/Info : UTF-8 Plain Text
Language : Spanish
Default : No
Forced : No
Statistics Tags Issue : mkvmerge v21.0.0 ('Tardigrades Will Inherit The Earth') 64-bit 2020-10-02 04:15:05 / mkvmerge v21.0.0 ('Tardigrades Will Inherit The Earth') 64-bit
FromStats_BitRate : 51
FromStats_Duration : 00:51:38.849000000
FromStats_FrameCount : 639
FromStats_StreamSize : 19913

Menu
00:05:57.015 : en:00:05:57.015
00:14:04.014 : en:00:14:04.014
00:24:21.010 : en:00:24:21.010
00:38:35.019 : en:00:38:35.019
00:51:39.015 : en:Credits





Monsterland S01E01


Monsterland S01E01


Monsterland S01E01


Monsterland S01E01


Monsterland S01E01