Monsterland S01E03

TV Series
Monsterland S01E03

Monsterland S01E03
WEBRip | MKV | 3840x2160 | English | H265 @ 15008 kbps | E-AC-3 @ 256 kbps | 49 min 23 s | 5.37 GiB
Subtitles: Español, English


In this fantasy anthology series, encounters with mermaids, fallen angels and other strange beasts drive broken people to desperate acts in an attempt to repair their lives, ultimately showing there is a thin line between man and beast.

f5a646cc8feb86044f310738c236e177.mkv (5.4 GB)



General
Unique ID : 110864084807691661928690810618368729986 (0x5367A564C42D32C1C8D14CA5738FA382)
Complete name : ./f5a646cc8feb86044f310738c236e177.mkv
Format : Matroska
Format version : Version 4 / Version 2
File size : 5.37 GiB
Duration : 49 min 23 s
Overall bit rate : 15.6 Mb/s
Writing application : mkvmerge v49.0.0 ('Sick Of Losing Soulmates') 64-bit
Writing library : libebml v1.4.0 + libmatroska v1.6.1

Video
ID : 1
Format : HEVC
Format/Info : High Efficiency Video Coding
Format profile : Main 10@L5.1@Main
Codec ID : V_MPEGH/ISO/HEVC
Duration : 49 min 23 s
Bit rate : 15.0 Mb/s
Width : 3 840 pixels
Height : 2 160 pixels
Display aspect ratio : 16:9
Frame rate mode : Constant
Frame rate : 23.976 (24000/1001) FPS
Color space : YUV
Chroma subsampling : 4:2:0
Bit depth : 10 bits
Bits/(Pixel*Frame) : 0.075
Stream size : 5.18 GiB (96%)
Default : Yes
Forced : No

Audio
ID : 2
Format : E-AC-3
Format/Info : Enhanced Audio Coding 3
Format settings, Endianness : Big
Codec ID : A_EAC3
Duration : 49 min 23 s
Bit rate mode : Constant
Bit rate : 256 kb/s
Channel(s) : 6 channels
Channel positions : Front: L C R, Side: L R, LFE
Sampling rate : 48.0 kHz
Frame rate : 187.500 FPS (256 SPF)
Compression mode : Lossy
Stream size : 90.4 MiB (2%)
Language : English
Service kind : Complete Main
Default : Yes
Forced : No

Text #1
ID : 3
Format : UTF-8
Codec ID : S_TEXT/UTF8
Codec ID/Info : UTF-8 Plain Text
Language : English
Default : No
Forced : No

Text #2
ID : 4
Format : UTF-8
Codec ID : S_TEXT/UTF8
Codec ID/Info : UTF-8 Plain Text
Language : Spanish
Default : No
Forced : No





Monsterland S01E03


Monsterland S01E03


Monsterland S01E03


Monsterland S01E03


Monsterland S01E03