Monsterland S01E07

TV Series
Monsterland S01E07

Monsterland S01E07
WEBRip | MKV | 3840x2160 | English | H265 @ 15261 kbps | E-AC-3 @ 256 kbps | 46 min 51 s | 5.18 GiB


In this fantasy anthology series, encounters with mermaids, fallen angels and other strange beasts drive broken people to desperate acts in an attempt to repair their lives, ultimately showing there is a thin line between man and beast.

2b1d8a3c3f321bcfa0fd15948ad4e0fd.mkv (5.2 GB)



General
Unique ID : 243356332916735645313427105769504361735 (0xB714B9913723EC4FACE7F1B32A37CD07)
Complete name : ./2b1d8a3c3f321bcfa0fd15948ad4e0fd.mkv
Format : Matroska
Format version : Version 4 / Version 2
File size : 5.18 GiB
Duration : 46 min 51 s
Overall bit rate : 15.8 Mb/s
Writing application : mkvmerge v49.0.0 ('Sick Of Losing Soulmates') 64-bit
Writing library : libebml v1.4.0 + libmatroska v1.6.1

Video
ID : 1
Format : HEVC
Format/Info : High Efficiency Video Coding
Format profile : Main 10@L5.1@Main
Codec ID : V_MPEGH/ISO/HEVC
Duration : 46 min 51 s
Bit rate : 15.3 Mb/s
Width : 3 840 pixels
Height : 2 160 pixels
Display aspect ratio : 16:9
Frame rate mode : Constant
Frame rate : 23.976 (24000/1001) FPS
Color space : YUV
Chroma subsampling : 4:2:0
Bit depth : 10 bits
Bits/(Pixel*Frame) : 0.077
Stream size : 5.00 GiB (96%)
Default : Yes
Forced : No

Audio
ID : 2
Format : E-AC-3
Format/Info : Enhanced Audio Coding 3
Format settings, Endianness : Big
Codec ID : A_EAC3
Duration : 46 min 51 s
Bit rate mode : Constant
Bit rate : 256 kb/s
Channel(s) : 6 channels
Channel positions : Front: L C R, Side: L R, LFE
Sampling rate : 48.0 kHz
Frame rate : 187.500 FPS (256 SPF)
Compression mode : Lossy
Stream size : 85.8 MiB (2%)
Language : English
Service kind : Complete Main
Default : Yes
Forced : No





Monsterland S01E07


Monsterland S01E07


Monsterland S01E07


Monsterland S01E07


Monsterland S01E07