Monsterland S01E08

TV Series
Monsterland S01E08

Monsterland S01E08
WEB-DL | MKV | 3840x2160 | English | H265 @ 15086 kbps | E-AC-3 @ 256 kbps | 53 min 45 s | 5.88 GiB


In this fantasy anthology series, encounters with mermaids, fallen angels and other strange beasts drive broken people to desperate acts in an attempt to repair their lives, ultimately showing there is a thin line between man and beast.

358cccdf5e4200d86d67913d75ee4dd5.mkv (5.9 GB)



General
Unique ID : 77588562964153043300290442185096150093 (0x3A5F03803C35455FB287C4CCCD81BC4D)
Complete name : ./358cccdf5e4200d86d67913d75ee4dd5.mkv
Format : Matroska
Format version : Version 4 / Version 2
File size : 5.88 GiB
Duration : 53 min 45 s
Overall bit rate : 15.7 Mb/s
Writing application : mkvmerge v21.0.0 ('Tardigrades Will Inherit The Earth') 64-bit
Writing library : libebml v1.3.5 + libmatroska v1.4.8

Video
ID : 1
Format : HEVC
Format/Info : High Efficiency Video Coding
Format profile : Main 10@L5.1@Main
Codec ID : V_MPEGH/ISO/HEVC
Duration : 53 min 45 s
Bit rate : 15.1 Mb/s
Width : 3 840 pixels
Height : 2 160 pixels
Display aspect ratio : 16:9
Frame rate mode : Constant
Frame rate : 23.976 (24000/1001) FPS
Color space : YUV
Chroma subsampling : 4:2:0
Bit depth : 10 bits
Bits/(Pixel*Frame) : 0.076
Stream size : 5.66 GiB (96%)
Default : Yes
Forced : No
Statistics Tags Issue : mkvmerge v21.0.0 ('Tardigrades Will Inherit The Earth') 64-bit 2020-10-02 04:46:23 / mkvmerge v21.0.0 ('Tardigrades Will Inherit The Earth') 64-bit
FromStats_BitRate : 15396174
FromStats_Duration : 00:53:44.930000000
FromStats_FrameCount : 77321
FromStats_StreamSize : 6206448072

Audio
ID : 2
Format : E-AC-3
Format/Info : Enhanced Audio Coding 3
Format settings, Endianness : Big
Codec ID : A_EAC3
Duration : 53 min 45 s
Bit rate mode : Constant
Bit rate : 256 kb/s
Channel(s) : 6 channels
Channel positions : Front: L C R, Side: L R, LFE
Sampling rate : 48.0 kHz
Frame rate : 187.500 FPS (256 SPF)
Compression mode : Lossy
Stream size : 98.4 MiB (2%)
Language : English
Service kind : Complete Main
Default : Yes
Forced : No
Statistics Tags Issue : mkvmerge v21.0.0 ('Tardigrades Will Inherit The Earth') 64-bit 2020-10-02 04:46:23 / mkvmerge v21.0.0 ('Tardigrades Will Inherit The Earth') 64-bit
FromStats_BitRate : 256000
FromStats_Duration : 00:53:45.056000000
FromStats_FrameCount : 100783
FromStats_StreamSize : 103201792

Menu
00:10:43.012 : en:00:10:43.012
00:18:00.002 : en:00:18:00.002
00:23:39.018 : en:00:23:39.018
00:37:18.010 : en:00:37:18.010
00:52:45.021 : en:Credits





Monsterland S01E08


Monsterland S01E08


Monsterland S01E08


Monsterland S01E08


Monsterland S01E08