Moonbase 8 S01E01

TV Series
Moonbase 8 S01E01

Moonbase 8 S01E01
WEB-DL | MKV | 1280x720 | English | H264 @ 4968 kbps | E-AC-3 @ 640 kbps | 26 min 54 s | 1.05 GiB
Subtitles: English
Genre: Comedy


In the isolated desert of Winslow, Arizona at NASA’s Moon Base Simulator, three eager astronauts—Skip, Rook and their leader Cap—attempt to qualify for their first lunar mission. They encounter many obstacles including loneliness, self-doubt and their own incompetence. In spite of it all, they remain determined to prove they have the right stuff to reach the moon.

57b18e37a9ca440a9d8e413f70ff97df.mkv (1.1 GB)



General
Unique ID : 7266808956172094370266337934758714131 (0x5778957DC1842BA9121878900C91B13)
Complete name : ./57b18e37a9ca440a9d8e413f70ff97df.mkv
Format : Matroska
Format version : Version 4 / Version 2
File size : 1.05 GiB
Duration : 26 min 54 s
Overall bit rate : 5 611 kb/s
Writing application : mkvmerge v45.0.0 ('Heaven in Pennies') 64-bit
Writing library : libebml v1.3.10 + libmatroska v1.5.2

Video
ID : 1
Format : AVC
Format/Info : Advanced Video Codec
Format profile : High@L3.1
Format settings : CABAC / 4 Ref Frames
Format settings, CABAC : Yes
Format settings, RefFrames : 4 frames
Codec ID : V_MPEG4/ISO/AVC
Duration : 26 min 54 s
Bit rate mode : Constant
Bit rate : 4 969 kb/s
Nominal bit rate : 6 000 kb/s
Width : 1 280 pixels
Height : 720 pixels
Display aspect ratio : 16:9
Frame rate mode : Constant
Frame rate : 23.976 (24000/1001) FPS
Color space : YUV
Chroma subsampling : 4:2:0
Bit depth : 8 bits
Scan type : Progressive
Bits/(Pixel*Frame) : 0.225
Stream size : 956 MiB (89%)
Default : Yes
Forced : No
Color range : Limited
Color primaries : BT.709
Transfer characteristics : BT.709
Matrix coefficients : BT.709

Audio
ID : 2
Format : E-AC-3
Format/Info : Enhanced Audio Coding 3
Format settings, Endianness : Big
Codec ID : A_EAC3
Duration : 26 min 54 s
Bit rate mode : Constant
Bit rate : 640 kb/s
Channel(s) : 6 channels
Channel positions : Front: L C R, Side: L R, LFE
Sampling rate : 48.0 kHz
Frame rate : 187.500 FPS (256 SPF)
Compression mode : Lossy
Stream size : 123 MiB (11%)
Language : English
Service kind : Complete Main
Default : Yes
Forced : No

Text
ID : 3
Format : UTF-8
Codec ID : S_TEXT/UTF8
Codec ID/Info : UTF-8 Plain Text
Duration : 25 min 43 s
Bit rate : 155 b/s
Count of elements : 668
Stream size : 29.3 KiB (0%)
Title : SDH
Language : English
Default : No
Forced : No





Moonbase 8 S01E01


Moonbase 8 S01E01


Moonbase 8 S01E01


Moonbase 8 S01E01


Moonbase 8 S01E01