Moonbase 8 S01E02

TV Series
Moonbase 8 S01E02

Moonbase 8 S01E02
WEB-DL | MKV | 1280x720 | English | H264 @ 4650 kbps | E-AC-3 @ 640 kbps | 27 min 37 s | 1.02 GiB
Subtitles: English
Genre: Comedy


In the isolated desert of Winslow, Arizona at NASA’s Moon Base Simulator, three eager astronauts—Skip, Rook and their leader Cap—attempt to qualify for their first lunar mission. They encounter many obstacles including loneliness, self-doubt and their own incompetence. In spite of it all, they remain determined to prove they have the right stuff to reach the moon.

2dbcf622a96c404cb1ab52415b64755a.mkv (1.0 GB)



General
Unique ID : 203367992344729124122072819287003699558 (0x98FF40288B707AD52B1E657C4ACF1966)
Complete name : ./2dbcf622a96c404cb1ab52415b64755a.mkv
Format : Matroska
Format version : Version 4 / Version 2
File size : 1.02 GiB
Duration : 27 min 37 s
Overall bit rate : 5 292 kb/s
Writing application : mkvmerge v45.0.0 ('Heaven in Pennies') 64-bit
Writing library : libebml v1.3.10 + libmatroska v1.5.2

Video
ID : 1
Format : AVC
Format/Info : Advanced Video Codec
Format profile : High@L3.1
Format settings : CABAC / 4 Ref Frames
Format settings, CABAC : Yes
Format settings, RefFrames : 4 frames
Codec ID : V_MPEG4/ISO/AVC
Duration : 27 min 37 s
Bit rate mode : Constant
Bit rate : 4 650 kb/s
Nominal bit rate : 6 000 kb/s
Width : 1 280 pixels
Height : 720 pixels
Display aspect ratio : 16:9
Frame rate mode : Constant
Frame rate : 23.976 (24000/1001) FPS
Color space : YUV
Chroma subsampling : 4:2:0
Bit depth : 8 bits
Scan type : Progressive
Bits/(Pixel*Frame) : 0.210
Stream size : 919 MiB (88%)
Default : Yes
Forced : No
Color range : Limited
Color primaries : BT.709
Transfer characteristics : BT.709
Matrix coefficients : BT.709

Audio
ID : 2
Format : E-AC-3
Format/Info : Enhanced Audio Coding 3
Format settings, Endianness : Big
Codec ID : A_EAC3
Duration : 27 min 37 s
Bit rate mode : Constant
Bit rate : 640 kb/s
Channel(s) : 6 channels
Channel positions : Front: L C R, Side: L R, LFE
Sampling rate : 48.0 kHz
Frame rate : 187.500 FPS (256 SPF)
Compression mode : Lossy
Stream size : 126 MiB (12%)
Language : English
Service kind : Complete Main
Default : Yes
Forced : No

Text
ID : 3
Format : UTF-8
Codec ID : S_TEXT/UTF8
Codec ID/Info : UTF-8 Plain Text
Duration : 26 min 12 s
Bit rate : 160 b/s
Count of elements : 712
Stream size : 30.7 KiB (0%)
Title : SDH
Language : English
Default : No
Forced : No





Moonbase 8 S01E02


Moonbase 8 S01E02


Moonbase 8 S01E02


Moonbase 8 S01E02


Moonbase 8 S01E02