The Search S01E04

TV Series
The Search S01E04

The Search S01E04
WEBRip | MKV | 1920x1080 | H264 @ 6224 kbps | AAC @ 128 kbps | 43 min 45 s | 1.94 GiB
Genre: Crime, Drama


When a girl vanishes from a suburb near Mexico City, the personal goals of some involved in the case muddy the search. Based on a true story.

mythbusters-the.search.s01e04.revenge.of.the.needle.in.a.haystack.1080p.web.h264-edhd.mkv (1.9 GB)



General
Unique ID : 67091826144434593050624469349714220786 (0x32796A6B489EA4C8CF66F6ADF6FDD6F2)
Complete name : ./mythbusters-the.search.s01e04.revenge.of.the.needle.in.a.haystack.1080p.web.h264-edhd.mkv
Format : Matroska
Format version : Version 4 / Version 2
File size : 1.94 GiB
Duration : 43 min 45 s
Overall bit rate : 6 355 kb/s
Encoded date : UTC 2017-05-04 20:46:41
Writing application : mkvmerge v9.8.0 ('Kuglblids') 64bit
Writing library : libebml v1.3.4 + libmatroska v1.4.5

Video
ID : 1
Format : AVC
Format/Info : Advanced Video Codec
Format profile : Main@L4.1
Format settings : CABAC / 3 Ref Frames
Format settings, CABAC : Yes
Format settings, RefFrames : 3 frames
Codec ID : V_MPEG4/ISO/AVC
Duration : 43 min 45 s
Bit rate : 6 224 kb/s
Width : 1 920 pixels
Height : 1 080 pixels
Display aspect ratio : 16:9
Frame rate mode : Constant
Frame rate : 25.000 FPS
Color space : YUV
Chroma subsampling : 4:2:0
Bit depth : 8 bits
Scan type : Progressive
Bits/(Pixel*Frame) : 0.120
Stream size : 1.90 GiB (98%)
Default : Yes
Forced : No
Color range : Limited
Color primaries : BT.709
Transfer characteristics : BT.709
Matrix coefficients : BT.709

Audio
ID : 2
Format : AAC
Format/Info : Advanced Audio Codec
Format profile : LC
Codec ID : A_AAC-2
Duration : 43 min 45 s
Bit rate : 128 kb/s
Channel(s) : 2 channels
Channel positions : Front: L R
Sampling rate : 48.0 kHz
Frame rate : 46.875 FPS (1024 SPF)
Compression mode : Lossy
Stream size : 40.1 MiB (2%)
Default : Yes
Forced : No





The Search S01E04


The Search S01E04


The Search S01E04


The Search S01E04


The Search S01E04