The Search S01E08

TV Series
The Search S01E08

The Search S01E08
WEBRip | MKV | 1920x1080 | H264 @ 4500 kbps | AAC @ 99 kbps | 42 min 23 s | 1.37 GiB
Subtitles: English
Genre: Crime, Drama


When a girl vanishes from a suburb near Mexico City, the personal goals of some involved in the case muddy the search. Based on a true story.

MythBusters.The.Search.S01E08.Exploding.Grand.Finale.1080p.DISC.WEBRip.AAC2.0.x264-AJP69.mkv (1.4 GB)



General
Unique ID : 240601030923257221525384965998855025783 (0xB50212B0D1D5DCBBA02B2FDD5D8F7477)
Complete name : ./MythBusters.The.Search.S01E08.Exploding.Grand.Finale.1080p.DISC.WEBRip.AAC2.0.x264-AJP69.mkv
Format : Matroska
Format version : Version 4 / Version 2
File size : 1.37 GiB
Duration : 42 min 23 s
Overall bit rate : 4 629 kb/s
Encoded date : UTC 2017-03-04 16:54:36
Writing application : mkvmerge v9.5.0 ('Quiet Fire') 64bit
Writing library : libebml v1.3.4 + libmatroska v1.4.5

Video
ID : 2
Format : AVC
Format/Info : Advanced Video Codec
Format profile : High@L4
Format settings : CABAC / 4 Ref Frames
Format settings, CABAC : Yes
Format settings, RefFrames : 4 frames
Codec ID : V_MPEG4/ISO/AVC
Duration : 42 min 23 s
Bit rate : 4 500 kb/s
Width : 1 920 pixels
Height : 1 080 pixels
Display aspect ratio : 16:9
Frame rate mode : Variable
Frame rate : 29.970 FPS
Color space : YUV
Chroma subsampling : 4:2:0
Bit depth : 8 bits
Scan type : Progressive
Bits/(Pixel*Frame) : 0.072
Stream size : 1.34 GiB (98%)
Writing library : x264 core 133
Encoding settings : cabac=1 / ref=3 / deblock=1:0:0 / analyse=0x3:0x113 / me=hex / subme=7 / psy=1 / psy_rd=1.00:0.00 / mixed_ref=1 / me_range=16 / chroma_me=1 / trellis=1 / 8x8dct=1 / cqm=0 / deadzone=21,11 / fast_pskip=1 / chroma_qp_offset=-2 / threads=48 / lookahead_threads=8 / sliced_threads=0 / nr=0 / decimate=1 / interlaced=0 / bluray_compat=0 / constrained_intra=0 / bframes=16 / b_pyramid=2 / b_adapt=1 / b_bias=0 / direct=1 / weightb=1 / open_gop=0 / weightp=2 / keyint=300 / keyint_min=29 / scenecut=40 / intra_refresh=0 / rc_lookahead=40 / rc=abr / mbtree=1 / bitrate=4500 / ratetol=1.0 / qcomp=0.60 / qpmin=0 / qpmax=69 / qpstep=4 / ip_ratio=1.40 / aq=1:1.00
Default : Yes
Forced : No

Audio
ID : 3
Format : AAC
Format/Info : Advanced Audio Codec
Format profile : LC
Codec ID : A_AAC-2
Duration : 42 min 23 s
Bit rate : 99.8 kb/s
Channel(s) : 2 channels
Channel positions : Front: L R
Sampling rate : 44.1 kHz
Frame rate : 43.066 FPS (1024 SPF)
Compression mode : Lossy
Stream size : 30.3 MiB (2%)
Default : Yes
Forced : No

Text
ID : 1
Format : UTF-8
Codec ID : S_TEXT/UTF8
Codec ID/Info : UTF-8 Plain Text
Duration : 42 min 19 s
Bit rate : 106 b/s
Count of elements : 1018
Stream size : 33.1 KiB (0%)
Language : English
Default : No
Forced : No





The Search S01E08


The Search S01E08


The Search S01E08


The Search S01E08


The Search S01E08