Offering to the Storm (2020)

Video
Offering to the Storm (2020)

Offering to the Storm (2020)
Ofrenda a la tormenta
WEB-DL | MKV | 1080p | Español / English | H264 @ 2490 kbps | E-AC-3 @ 640 kbps | 2 h 19 min | 3.66 GiB
WEBRip | MKV | 1080p | Español / Français / English | H264 2490 kbps | AC3 @ 640 kbps | 2h 19m | 4.29 GiB
Subtitles: العربية, Français, Svenska, Suomi, Español, Magyar, Polski, Italiano, Русский, Ελληνικά, Türkçe, Nederlands, עברית, Dansk, English, Română, Bokmål, Português, Čeština
Genre: Crime, Thriller

Inspector Amaia Salazar confronts the origins of her nightmares as she unfolds the darkest secrets of the Baztan valley. Part 3 in the Baztan Trilogy.

e1f238fc0f624ed38d11b2e2977fbb79.mkv (3.7 GB)



General
Unique ID : 168220570696163652859951627058754024115 (0x7E8E1A7AD1988C291F8DF8190ABAF2B3)
Complete name : ./e1f238fc0f624ed38d11b2e2977fbb79.mkv
Format : Matroska
Format version : Version 4 / Version 2
File size : 3.66 GiB
Duration : 2 h 19 min
Overall bit rate mode : Variable
Overall bit rate : 3 755 kb/s
Encoded date : UTC 2020-07-24 07:16:25
Writing application : mkvmerge v44.0.0 ('Domino') 64-bit
Writing library : libebml v1.3.10 + libmatroska v1.5.2

Video
ID : 1
Format : AVC
Format/Info : Advanced Video Codec
Format profile : Main@L4
Format settings : CABAC / 3 Ref Frames
Format settings, CABAC : Yes
Format settings, RefFrames : 3 frames
Codec ID : V_MPEG4/ISO/AVC
Duration : 2 h 19 min
Bit rate mode : Variable
Bit rate : 2 490 kb/s
Maximum bit rate : 3 735 kb/s
Width : 1 920 pixels
Height : 1 080 pixels
Display aspect ratio : 16:9
Frame rate mode : Constant
Frame rate : 24.000 FPS
Color space : YUV
Chroma subsampling : 4:2:0
Bit depth : 8 bits
Scan type : Progressive
Bits/(Pixel*Frame) : 0.050
Stream size : 2.41 GiB (66%)
Writing library : x264 core 148 r2717 0d2410d
Encoding settings : cabac=1 / ref=3 / deblock=1:0:0 / analyse=0x1:0x111 / me=umh / subme=10 / psy=1 / psy_rd=1.00:0.00 / mixed_ref=1 / me_range=24 / chroma_me=1 / trellis=2 / 8x8dct=0 / cqm=0 / deadzone=21,11 / fast_pskip=1 / chroma_qp_offset=-2 / threads=8 / lookahead_threads=1 / sliced_threads=0 / nr=0 / decimate=1 / interlaced=0 / bluray_compat=0 / stitchable=1 / constrained_intra=0 / bframes=2 / b_pyramid=0 / b_adapt=2 / b_bias=0 / direct=3 / weightb=1 / open_gop=0 / weightp=2 / keyint=250 / keyint_min=24 / scenecut=0 / intra_refresh=0 / rc_lookahead=48 / rc=2pass / mbtree=1 / bitrate=2490 / ratetol=1.0 / qcomp=0.50 / qpmin=6 / qpmax=51 / qpstep=4 / cplxblur=20.0 / qblur=0.5 / vbv_maxrate=3735 / vbv_bufsize=4980 / nal_hrd=vbr / filler=0 / ip_ratio=1.40 / aq=1:1.00
Default : Yes
Forced : No

Audio #1
ID : 2
Format : E-AC-3
Format/Info : Enhanced Audio Coding 3
Format settings, Endianness : Big
Codec ID : A_EAC3
Duration : 2 h 19 min
Bit rate mode : Constant
Bit rate : 640 kb/s
Channel(s) : 6 channels
Channel positions : Front: L C R, Side: L R, LFE
Sampling rate : 48.0 kHz
Frame rate : 187.500 FPS (256 SPF)
Compression mode : Lossy
Stream size : 639 MiB (17%)
Title : English
Language : English
Service kind : Complete Main
Default : Yes
Forced : No

Audio #2
ID : 3
Format : E-AC-3
Format/Info : Enhanced Audio Coding 3
Format settings, Endianness : Big
Codec ID : A_EAC3
Duration : 2 h 19 min
Bit rate mode : Constant
Bit rate : 640 kb/s
Channel(s) : 6 channels
Channel positions : Front: L C R, Side: L R, LFE
Sampling rate : 48.0 kHz
Frame rate : 187.500 FPS (256 SPF)
Compression mode : Lossy
Stream size : 639 MiB (17%)
Title : European Spanish
Language : Spanish
Service kind : Complete Main
Default : No
Forced : No

Text #1
ID : 4
Format : UTF-8
Codec ID : S_TEXT/UTF8
Codec ID/Info : UTF-8 Plain Text
Duration : 2 h 15 min
Bit rate : 50 b/s
Count of elements : 1464
Stream size : 50.3 KiB (0%)
Title : English
Language : English
Default : No
Forced : No

Text #2
ID : 5
Format : UTF-8
Codec ID : S_TEXT/UTF8
Codec ID/Info : UTF-8 Plain Text
Duration : 2 h 15 min
Bit rate : 0 b/s
Count of elements : 19
Stream size : 420 Bytes (0%)
Title : English - [Forced]
Language : English
Default : No
Forced : Yes

Text #3
ID : 6
Format : UTF-8
Codec ID : S_TEXT/UTF8
Codec ID/Info : UTF-8 Plain Text
Duration : 2 h 18 min
Bit rate : 95 b/s
Count of elements : 1556
Stream size : 97.2 KiB (0%)
Title : Arabic
Language : Arabic
Default : No
Forced : No

Text #4
ID : 7
Format : UTF-8
Codec ID : S_TEXT/UTF8
Codec ID/Info : UTF-8 Plain Text
Duration : 2 h 14 min
Bit rate : 54 b/s
Count of elements : 1652
Stream size : 53.7 KiB (0%)
Title : Czech
Language : Czech
Default : No
Forced : No

Text #5
ID : 8
Format : UTF-8
Codec ID : S_TEXT/UTF8
Codec ID/Info : UTF-8 Plain Text
Duration : 2 h 18 min
Bit rate : 53 b/s
Count of elements : 1748
Stream size : 53.9 KiB (0%)
Title : Danish
Language : Danish
Default : No
Forced : No

Text #6
ID : 9
Format : UTF-8
Codec ID : S_TEXT/UTF8
Codec ID/Info : UTF-8 Plain Text
Duration : 2 h 15 min
Bit rate : 53 b/s
Count of elements : 1518
Stream size : 52.7 KiB (0%)
Title : Dutch
Language : Dutch
Default : No
Forced : No

Text #7
ID : 10
Format : UTF-8
Codec ID : S_TEXT/UTF8
Codec ID/Info : UTF-8 Plain Text
Duration : 2 h 18 min
Bit rate : 48 b/s
Count of elements : 1700
Stream size : 49.7 KiB (0%)
Title : Finnish
Language : Finnish
Default : No
Forced : No

Text #8
ID : 11
Format : UTF-8
Codec ID : S_TEXT/UTF8
Codec ID/Info : UTF-8 Plain Text
Duration : 2 h 18 min
Bit rate : 50 b/s
Count of elements : 1690
Stream size : 51.0 KiB (0%)
Title : French
Language : French
Default : No
Forced : No

Text #9
ID : 12
Format : UTF-8
Codec ID : S_TEXT/UTF8
Codec ID/Info : UTF-8 Plain Text
Duration : 2 h 18 min
Bit rate : 91 b/s
Count of elements : 1610
Stream size : 92.8 KiB (0%)
Title : Greek
Language : Greek
Default : No
Forced : No

Text #10
ID : 13
Format : UTF-8
Codec ID : S_TEXT/UTF8
Codec ID/Info : UTF-8 Plain Text
Duration : 2 h 18 min
Bit rate : 83 b/s
Count of elements : 1706
Stream size : 84.6 KiB (0%)
Title : Hebrew
Language : Hebrew
Default : No
Forced : No

Text #11
ID : 14
Format : UTF-8
Codec ID : S_TEXT/UTF8
Codec ID/Info : UTF-8 Plain Text
Duration : 2 h 18 min
Bit rate : 52 b/s
Count of elements : 1670
Stream size : 53.7 KiB (0%)
Title : Hungarian
Language : Hungarian
Default : No
Forced : No

Text #12
ID : 15
Format : UTF-8
Codec ID : S_TEXT/UTF8
Codec ID/Info : UTF-8 Plain Text
Duration : 2 h 15 min
Bit rate : 50 b/s
Count of elements : 1705
Stream size : 50.4 KiB (0%)
Title : Italian
Language : Italian
Default : No
Forced : No

Text #13
ID : 16
Format : UTF-8
Codec ID : S_TEXT/UTF8
Codec ID/Info : UTF-8 Plain Text
Duration : 2 h 18 min
Bit rate : 51 b/s
Count of elements : 1541
Stream size : 52.3 KiB (0%)
Title : Norwegian Bokmal
Language : Norwegian Bokmal
Default : No
Forced : No

Text #14
ID : 17
Format : UTF-8
Codec ID : S_TEXT/UTF8
Codec ID/Info : UTF-8 Plain Text
Duration : 2 h 18 min
Bit rate : 51 b/s
Count of elements : 1626
Stream size : 52.7 KiB (0%)
Title : Polish
Language : Polish
Default : No
Forced : No

Text #15
ID : 18
Format : UTF-8
Codec ID : S_TEXT/UTF8
Codec ID/Info : UTF-8 Plain Text
Duration : 2 h 18 min
Bit rate : 55 b/s
Count of elements : 1744
Stream size : 56.2 KiB (0%)
Title : Portuguese
Language : Portuguese
Default : No
Forced : No

Text #16
ID : 19
Format : UTF-8
Codec ID : S_TEXT/UTF8
Codec ID/Info : UTF-8 Plain Text
Duration : 2 h 18 min
Bit rate : 52 b/s
Count of elements : 1663
Stream size : 53.2 KiB (0%)
Title : Brazilian Portuguese
Language : Portuguese
Default : No
Forced : No

Text #17
ID : 20
Format : UTF-8
Codec ID : S_TEXT/UTF8
Codec ID/Info : UTF-8 Plain Text
Duration : 2 h 18 min
Bit rate : 58 b/s
Count of elements : 1709
Stream size : 59.1 KiB (0%)
Title : Romanian
Language : Romanian
Default : No
Forced : No

Text #18
ID : 21
Format : UTF-8
Codec ID : S_TEXT/UTF8
Codec ID/Info : UTF-8 Plain Text
Duration : 2 h 18 min
Bit rate : 83 b/s
Count of elements : 1892
Stream size : 84.9 KiB (0%)
Title : Russian
Language : Russian
Default : No
Forced : No

Text #19
ID : 22
Format : UTF-8
Codec ID : S_TEXT/UTF8
Codec ID/Info : UTF-8 Plain Text
Duration : 2 h 14 min
Bit rate : 85 b/s
Count of elements : 1856
Stream size : 84.2 KiB (0%)
Title : European Spanish
Language : Spanish
Default : No
Forced : No

Text #20
ID : 23
Format : UTF-8
Codec ID : S_TEXT/UTF8
Codec ID/Info : UTF-8 Plain Text
Duration : 2 h 6 min
Bit rate : 6 b/s
Count of elements : 194
Stream size : 6.30 KiB (0%)
Title : European Spanish - [Forced]
Language : Spanish
Default : No
Forced : Yes

Text #21
ID : 24
Format : UTF-8
Codec ID : S_TEXT/UTF8
Codec ID/Info : UTF-8 Plain Text
Duration : 2 h 18 min
Bit rate : 53 b/s
Count of elements : 1429
Stream size : 54.0 KiB (0%)
Title : Swedish
Language : Swedish
Default : No
Forced : No

Text #22
ID : 25
Format : UTF-8
Codec ID : S_TEXT/UTF8
Codec ID/Info : UTF-8 Plain Text
Duration : 2 h 18 min
Bit rate : 54 b/s
Count of elements : 1722
Stream size : 55.2 KiB (0%)
Title : Turkish
Language : Turkish
Default : No
Forced : No





Offering to the Storm (2020)


Offering to the Storm (2020)


Offering to the Storm (2020)


Offering to the Storm (2020)


Offering to the Storm (2020)