Oktoberfest Beer And Blood (Season 1)

TV Series
Oktoberfest Beer And Blood (Season 1)

Oktoberfest Beer And Blood (Season 1)
WEB-DL | MKV | 1920x1080 | Deutsch | H264 @ 5110 kbps | E-AC-3 @ 640 kbps | 47 min 58 s | 6 x 1.90 GiB
Subtitles: ภาษาไทย, Hrvatski, Français, tiếng Việt, Español, Magyar, 日本語, עברית, 한국어, Русский, Ελληνικά, Nederlands, Dansk, Bahasa Indonesia, Bokmål, 中文, Suomi, Polski, Türkçe, English, Română, العربية, Deutsch, Svenska, Italiano, Português, Čeština
Genre: Drama

A young girl falls in love with a poor brewer's son. Their relationship is opposed by the girl's father, a rich mobster who has come to town to try to bully his way into the inner circle of Munich's brewery dynasties.

Oktoberfest.Beer.Blood.S01E01.Vision.1080p.NF.WEB-DL.DDP5.1.H.264-NTb.srt (28.4 KB)
Oktoberfest.Beer.Blood.S01E01.Vision.1080p.NF.WEB-DL.DDP5.1.H.264-NTb.mkv (1.6 GB)
Oktoberfest.Beer.Blood.S01E05.Dawn.of.a.New.Century.1080p.NF.WEB-DL.DDP5.1.H.264-NTb.mkv (1.8 GB)
Oktoberfest.Beer.Blood.S01E06.Last.Judgement.1080p.NF.WEB-DL.DDP5.1.H.264-NTb.srt (26.1 KB)
Oktoberfest.Beer.Blood.S01E03.Love.and.Capital.1080p.NF.WEB-DL.DDP5.1.H.264-NTb.mkv (1.4 GB)
Oktoberfest.Beer.Blood.S01E02.Signs.of.the.Times.1080p.NF.WEB-DL.DDP5.1.H.264-NTb.mkv (1.6 GB)
Oktoberfest.Beer.Blood.S01E06.Last.Judgement.1080p.NF.WEB-DL.DDP5.1.H.264-NTb.mkv (1.8 GB)
Oktoberfest.Beer.Blood.S01E03.Love.and.Capital.1080p.NF.WEB-DL.DDP5.1.H.264-NTb.srt (26.9 KB)
Oktoberfest.Beer.Blood.S01E04.First.Tapping.1080p.NF.WEB-DL.DDP5.1.H.264-NTb.srt (25.0 KB)
Oktoberfest.Beer.Blood.S01E05.Dawn.of.a.New.Century.1080p.NF.WEB-DL.DDP5.1.H.264-NTb.srt (25.9 KB)
Oktoberfest.Beer.Blood.S01E04.First.Tapping.1080p.NF.WEB-DL.DDP5.1.H.264-NTb.mkv (1.9 GB)
Oktoberfest.Beer.Blood.S01E02.Signs.of.the.Times.1080p.NF.WEB-DL.DDP5.1.H.264-NTb.srt (29.7 KB)



General
Unique ID : 103359046709171608995912963645927583139 (0x4DC23A72657D92214F3AC7C43907EDA3)
Complete name : ./Oktoberfest.Beer.Blood.S01E04.First.Tapping.1080p.NF.WEB-DL.DDP5.1.H.264-NTb.mkv
Format : Matroska
Format version : Version 4 / Version 2
File size : 1.90 GiB
Duration : 47 min 58 s
Overall bit rate mode : Variable
Overall bit rate : 5 662 kb/s
Encoded date : UTC 2020-10-01 14:02:15
Writing application : mkvmerge v38.0.0 ('The Silent Type') 64-bit
Writing library : libebml v1.3.9 + libmatroska v1.5.2

Video
ID : 1
Format : AVC
Format/Info : Advanced Video Codec
Format profile : Main@L4
Format settings : CABAC / 3 Ref Frames
Format settings, CABAC : Yes
Format settings, RefFrames : 3 frames
Codec ID : V_MPEG4/ISO/AVC
Duration : 47 min 58 s
Bit rate mode : Variable
Bit rate : 5 110 kb/s
Maximum bit rate : 7 665 kb/s
Width : 1 920 pixels
Height : 1 080 pixels
Display aspect ratio : 16:9
Frame rate mode : Constant
Frame rate : 25.000 FPS
Color space : YUV
Chroma subsampling : 4:2:0
Bit depth : 8 bits
Scan type : Progressive
Bits/(Pixel*Frame) : 0.099
Stream size : 1.68 GiB (89%)
Writing library : x264 core 148 r2722 1b0121b
Encoding settings : cabac=1 / ref=3 / deblock=1:0:0 / analyse=0x1:0x111 / me=umh / subme=10 / psy=1 / psy_rd=1.00:0.00 / mixed_ref=1 / me_range=24 / chroma_me=1 / trellis=2 / 8x8dct=0 / cqm=0 / deadzone=21,11 / fast_pskip=1 / chroma_qp_offset=-2 / threads=8 / lookahead_threads=1 / sliced_threads=0 / nr=0 / decimate=1 / interlaced=0 / bluray_compat=0 / stitchable=1 / constrained_intra=0 / bframes=2 / b_pyramid=0 / b_adapt=2 / b_bias=0 / direct=3 / weightb=1 / open_gop=0 / weightp=2 / keyint=250 / keyint_min=25 / scenecut=0 / intra_refresh=0 / rc_lookahead=50 / rc=2pass / mbtree=1 / bitrate=5110 / ratetol=1.0 / qcomp=0.50 / qpmin=6 / qpmax=51 / qpstep=4 / cplxblur=20.0 / qblur=0.5 / vbv_maxrate=7665 / vbv_bufsize=10220 / nal_hrd=vbr / filler=0 / ip_ratio=1.40 / aq=1:1.00
Default : Yes
Forced : No

Audio
ID : 2
Format : E-AC-3
Format/Info : Enhanced Audio Coding 3
Format settings, Endianness : Big
Codec ID : A_EAC3
Duration : 47 min 58 s
Bit rate mode : Constant
Bit rate : 640 kb/s
Channel(s) : 6 channels
Channel positions : Front: L C R, Side: L R, LFE
Sampling rate : 48.0 kHz
Frame rate : 187.500 FPS (256 SPF)
Compression mode : Lossy
Stream size : 220 MiB (11%)
Language : German
Service kind : Complete Main
Default : Yes
Forced : No

Text #1
ID : 3
Format : UTF-8
Codec ID : S_TEXT/UTF8
Codec ID/Info : UTF-8 Plain Text
Duration : 46 min 33 s
Bit rate : 33 b/s
Count of elements : 417
Stream size : 11.4 KiB (0%)
Language : English
Default : Yes
Forced : No

Text #2
ID : 4
Format : UTF-8
Codec ID : S_TEXT/UTF8
Codec ID/Info : UTF-8 Plain Text
Duration : 46 min 26 s
Bit rate : 47 b/s
Count of elements : 537
Stream size : 16.0 KiB (0%)
Title : SDH
Language : German
Default : No
Forced : No

Text #3
ID : 5
Format : UTF-8
Codec ID : S_TEXT/UTF8
Codec ID/Info : UTF-8 Plain Text
Duration : 47 min 0 s
Bit rate : 50 b/s
Count of elements : 570
Stream size : 17.4 KiB (0%)
Title : SDH
Language : English
Default : No
Forced : No

Text #4
ID : 6
Format : UTF-8
Codec ID : S_TEXT/UTF8
Codec ID/Info : UTF-8 Plain Text
Duration : 46 min 33 s
Bit rate : 54 b/s
Count of elements : 423
Stream size : 18.6 KiB (0%)
Language : Arabic
Default : No
Forced : No

Text #5
ID : 7
Format : UTF-8
Codec ID : S_TEXT/UTF8
Codec ID/Info : UTF-8 Plain Text
Duration : 44 min 58 s
Bit rate : 32 b/s
Count of elements : 410
Stream size : 10.8 KiB (0%)
Language : Czech
Default : No
Forced : No

Text #6
ID : 8
Format : UTF-8
Codec ID : S_TEXT/UTF8
Codec ID/Info : UTF-8 Plain Text
Duration : 46 min 33 s
Bit rate : 31 b/s
Count of elements : 416
Stream size : 10.7 KiB (0%)
Language : Danish
Default : No
Forced : No

Text #7
ID : 9
Format : UTF-8
Codec ID : S_TEXT/UTF8
Codec ID/Info : UTF-8 Plain Text
Duration : 44 min 57 s
Bit rate : 57 b/s
Count of elements : 399
Stream size : 18.9 KiB (0%)
Language : Greek
Default : No
Forced : No

Text #8
ID : 10
Format : UTF-8
Codec ID : S_TEXT/UTF8
Codec ID/Info : UTF-8 Plain Text
Duration : 46 min 51 s
Bit rate : 33 b/s
Count of elements : 356
Stream size : 11.6 KiB (0%)
Title : Latin American
Language : Spanish
Default : No
Forced : No

Text #9
ID : 11
Format : UTF-8
Codec ID : S_TEXT/UTF8
Codec ID/Info : UTF-8 Plain Text
Duration : 46 min 33 s
Bit rate : 31 b/s
Count of elements : 409
Stream size : 10.7 KiB (0%)
Title : European
Language : Spanish
Default : No
Forced : No

Text #10
ID : 12
Format : UTF-8
Codec ID : S_TEXT/UTF8
Codec ID/Info : UTF-8 Plain Text
Duration : 46 min 29 s
Bit rate : 32 b/s
Count of elements : 377
Stream size : 10.9 KiB (0%)
Language : Finnish
Default : No
Forced : No

Text #11
ID : 13
Format : UTF-8
Codec ID : S_TEXT/UTF8
Codec ID/Info : UTF-8 Plain Text
Duration : 47 min 0 s
Bit rate : 35 b/s
Count of elements : 417
Stream size : 12.1 KiB (0%)
Language : French
Default : No
Forced : No

Text #12
ID : 14
Format : UTF-8
Codec ID : S_TEXT/UTF8
Codec ID/Info : UTF-8 Plain Text
Duration : 46 min 33 s
Bit rate : 53 b/s
Count of elements : 424
Stream size : 18.2 KiB (0%)
Language : Hebrew
Default : No
Forced : No

Text #13
ID : 15
Format : UTF-8
Codec ID : S_TEXT/UTF8
Codec ID/Info : UTF-8 Plain Text
Duration : 46 min 51 s
Bit rate : 29 b/s
Count of elements : 412
Stream size : 10.2 KiB (0%)
Language : Croatian
Default : No
Forced : No

Text #14
ID : 16
Format : UTF-8
Codec ID : S_TEXT/UTF8
Codec ID/Info : UTF-8 Plain Text
Duration : 46 min 58 s
Bit rate : 32 b/s
Count of elements : 409
Stream size : 11.2 KiB (0%)
Language : Hungarian
Default : No
Forced : No

Text #15
ID : 17
Format : UTF-8
Codec ID : S_TEXT/UTF8
Codec ID/Info : UTF-8 Plain Text
Duration : 47 min 0 s
Bit rate : 31 b/s
Count of elements : 411
Stream size : 10.8 KiB (0%)
Language : Indonesian
Default : No
Forced : No

Text #16
ID : 18
Format : UTF-8
Codec ID : S_TEXT/UTF8
Codec ID/Info : UTF-8 Plain Text
Duration : 46 min 33 s
Bit rate : 33 b/s
Count of elements : 415
Stream size : 11.3 KiB (0%)
Language : Italian
Default : No
Forced : No

Text #17
ID : 19
Format : UTF-8
Codec ID : S_TEXT/UTF8
Codec ID/Info : UTF-8 Plain Text
Duration : 47 min 0 s
Bit rate : 34 b/s
Count of elements : 402
Stream size : 11.9 KiB (0%)
Language : Japanese
Default : No
Forced : No

Text #18
ID : 20
Format : UTF-8
Codec ID : S_TEXT/UTF8
Codec ID/Info : UTF-8 Plain Text
Duration : 46 min 58 s
Bit rate : 41 b/s
Count of elements : 417
Stream size : 14.3 KiB (0%)
Language : Korean
Default : No
Forced : No

Text #19
ID : 21
Format : UTF-8
Codec ID : S_TEXT/UTF8
Codec ID/Info : UTF-8 Plain Text
Duration : 46 min 33 s
Bit rate : 28 b/s
Count of elements : 391
Stream size : 9.84 KiB (0%)
Language : Malay
Default : No
Forced : No

Text #20
ID : 22
Format : UTF-8
Codec ID : S_TEXT/UTF8
Codec ID/Info : UTF-8 Plain Text
Duration : 46 min 35 s
Bit rate : 30 b/s
Count of elements : 386
Stream size : 10.5 KiB (0%)
Language : Norwegian Bokmal
Default : No
Forced : No

Text #21
ID : 23
Format : UTF-8
Codec ID : S_TEXT/UTF8
Codec ID/Info : UTF-8 Plain Text
Duration : 46 min 33 s
Bit rate : 30 b/s
Count of elements : 387
Stream size : 10.4 KiB (0%)
Language : Dutch
Default : No
Forced : No

Text #22
ID : 24
Format : UTF-8
Codec ID : S_TEXT/UTF8
Codec ID/Info : UTF-8 Plain Text
Duration : 47 min 0 s
Bit rate : 30 b/s
Count of elements : 390
Stream size : 10.5 KiB (0%)
Language : Polish
Default : No
Forced : No

Text #23
ID : 25
Format : UTF-8
Codec ID : S_TEXT/UTF8
Codec ID/Info : UTF-8 Plain Text
Duration : 47 min 0 s
Bit rate : 31 b/s
Count of elements : 402
Stream size : 11.0 KiB (0%)
Title : European
Language : Portuguese
Default : No
Forced : No

Text #24
ID : 26
Format : UTF-8
Codec ID : S_TEXT/UTF8
Codec ID/Info : UTF-8 Plain Text
Duration : 46 min 29 s
Bit rate : 32 b/s
Count of elements : 397
Stream size : 11.1 KiB (0%)
Title : Brazilian
Language : Portuguese
Default : No
Forced : No

Text #25
ID : 27
Format : UTF-8
Codec ID : S_TEXT/UTF8
Codec ID/Info : UTF-8 Plain Text
Duration : 46 min 33 s
Bit rate : 37 b/s
Count of elements : 422
Stream size : 12.6 KiB (0%)
Language : Romanian
Default : No
Forced : No

Text #26
ID : 28
Format : UTF-8
Codec ID : S_TEXT/UTF8
Codec ID/Info : UTF-8 Plain Text
Duration : 46 min 35 s
Bit rate : 51 b/s
Count of elements : 401
Stream size : 17.6 KiB (0%)
Language : Russian
Default : No
Forced : No

Text #27
ID : 29
Format : UTF-8
Codec ID : S_TEXT/UTF8
Codec ID/Info : UTF-8 Plain Text
Duration : 46 min 33 s
Bit rate : 33 b/s
Count of elements : 394
Stream size : 11.3 KiB (0%)
Language : Swedish
Default : No
Forced : No

Text #28
ID : 30
Format : UTF-8
Codec ID : S_TEXT/UTF8
Codec ID/Info : UTF-8 Plain Text
Duration : 46 min 33 s
Bit rate : 92 b/s
Count of elements : 423
Stream size : 31.6 KiB (0%)
Language : Thai
Default : No
Forced : No

Text #29
ID : 31
Format : UTF-8
Codec ID : S_TEXT/UTF8
Codec ID/Info : UTF-8 Plain Text
Duration : 46 min 33 s
Bit rate : 32 b/s
Count of elements : 413
Stream size : 11.1 KiB (0%)
Language : Turkish
Default : No
Forced : No

Text #30
ID : 32
Format : UTF-8
Codec ID : S_TEXT/UTF8
Codec ID/Info : UTF-8 Plain Text
Duration : 46 min 33 s
Bit rate : 48 b/s
Count of elements : 377
Stream size : 16.5 KiB (0%)
Language : Vietnamese
Default : No
Forced : No

Text #31
ID : 33
Format : UTF-8
Codec ID : S_TEXT/UTF8
Codec ID/Info : UTF-8 Plain Text
Duration : 46 min 29 s
Bit rate : 35 b/s
Count of elements : 417
Stream size : 12.0 KiB (0%)
Title : Simplified
Language : Chinese
Default : No
Forced : No

Text #32
ID : 34
Format : UTF-8
Codec ID : S_TEXT/UTF8
Codec ID/Info : UTF-8 Plain Text
Duration : 46 min 58 s
Bit rate : 32 b/s
Count of elements : 416
Stream size : 11.3 KiB (0%)
Title : Traditional
Language : Chinese
Default : No
Forced : No





Oktoberfest Beer And Blood (Season 1)


Oktoberfest Beer And Blood (Season 1)


Oktoberfest Beer And Blood (Season 1)


Oktoberfest Beer And Blood (Season 1)


Oktoberfest Beer And Blood (Season 1)