Patria S01E02

TV Series
Patria S01E02

Patria S01E02
WEB-DL | MKV | 1280x688 | H264 @ 2550 kbps | E-AC-3 @ 224 kbps | 1 h 0 min | 1.19 GiB
Genre: Crime, Drama

A look at the impact of Spain’s Basque conflict on ordinary people on both sides, such as the widow of a man killed by the ETA who returns to her home village after the 2011 ceasefire between the separatist group and the Spanish government, and her former intimate friend, the mother of a jailed terrorist.

1e7e7b7bc1744f2f9353e9a710858785.mkv (1.2 GB)



General
Unique ID : 119332234572860692351792507750201865470 (0x59C68D6965247E8B51A538AF9B22B4FE)
Complete name : ./1e7e7b7bc1744f2f9353e9a710858785.mkv
Format : Matroska
Format version : Version 4 / Version 2
File size : 1.19 GiB
Duration : 1 h 0 min
Overall bit rate : 2 831 kb/s
Writing application : Lavf58.42.100
Writing library : Lavf58.42.100
ErrorDetectionType : Per level 1

Video
ID : 1
Format : AVC
Format/Info : Advanced Video Codec
Format profile : High@L3.1
Format settings : CABAC / 4 Ref Frames
Format settings, CABAC : Yes
Format settings, RefFrames : 4 frames
Codec ID : V_MPEG4/ISO/AVC
Duration : 1 h 0 min
Bit rate mode : Constant
Bit rate : 2 551 kb/s
Nominal bit rate : 6 000 kb/s
Width : 1 280 pixels
Height : 688 pixels
Display aspect ratio : 1.85:1
Frame rate mode : Constant
Frame rate : 23.976 (24000/1001) FPS
Color space : YUV
Chroma subsampling : 4:2:0
Bit depth : 8 bits
Scan type : Progressive
Bits/(Pixel*Frame) : 0.121
Stream size : 1.07 GiB (90%)
Default : Yes
Forced : No
Color range : Limited
Color primaries : BT.709
Transfer characteristics : BT.709
Matrix coefficients : BT.709

Audio
ID : 2
Format : E-AC-3
Format/Info : Enhanced Audio Coding 3
Format settings, Endianness : Big
Codec ID : A_EAC3
Duration : 1 h 0 min
Bit rate mode : Constant
Bit rate : 224 kb/s
Channel(s) : 2 channels
Channel positions : Front: L R
Sampling rate : 48.0 kHz
Frame rate : 187.500 FPS (256 SPF)
Bit depth : 32 bits
Compression mode : Lossy
Stream size : 96.2 MiB (8%)
Service kind : Complete Main
Default : Yes
Forced : No

Text
ID : 3
Format : ASS
Codec ID : S_TEXT/ASS
Codec ID/Info : Advanced Sub Station Alpha
Duration : 58 min 44 s
Compression mode : Lossless
Writing library : Lavc58.80.100 ssa
Default : No
Forced : No





Patria S01E02


Patria S01E02


Patria S01E02


Patria S01E02


Patria S01E02