Patria S01E01

TV Series
Patria S01E01

Patria S01E01
WEB-DL | MKV | 1920x1040 | Español | H264 @ 6493 kbps | E-AC-3 @ 224 kbps | 1 h 0 min | 2.82 GiB
Subtitles: English
Genre: Crime, Drama

A look at the impact of Spain’s Basque conflict on ordinary people on both sides, such as the widow of a man killed by the ETA who returns to her home village after the 2011 ceasefire between the separatist group and the Spanish government, and her former intimate friend, the mother of a jailed terrorist.

6e034c4f8c08422eba49712b572b56c5.mkv (2.8 GB)



General
Unique ID : 28801639473857160132858108695937742745 (0x15AAFE7631F4A09F407D8165D49AF799)
Complete name : ./6e034c4f8c08422eba49712b572b56c5.mkv
Format : Matroska
Format version : Version 4 / Version 2
File size : 2.82 GiB
Duration : 1 h 0 min
Overall bit rate : 6 719 kb/s
Encoded date : UTC 2020-09-29 12:01:42
Writing application : mkvmerge v44.0.0 ('Domino') 64-bit
Writing library : libebml v1.3.10 + libmatroska v1.5.2

Video
ID : 1
Format : AVC
Format/Info : Advanced Video Codec
Format profile : High@L4
Format settings : CABAC / 4 Ref Frames
Format settings, CABAC : Yes
Format settings, RefFrames : 4 frames
Codec ID : V_MPEG4/ISO/AVC
Duration : 1 h 0 min
Bit rate mode : Constant
Bit rate : 6 494 kb/s
Nominal bit rate : 10 000 kb/s
Width : 1 920 pixels
Height : 1 040 pixels
Display aspect ratio : 1.85:1
Frame rate mode : Constant
Frame rate : 23.976 (24000/1001) FPS
Color space : YUV
Chroma subsampling : 4:2:0
Bit depth : 8 bits
Scan type : Progressive
Bits/(Pixel*Frame) : 0.136
Stream size : 2.73 GiB (97%)
Default : Yes
Forced : No
Color range : Limited
Color primaries : BT.709
Transfer characteristics : BT.709
Matrix coefficients : BT.709

Audio
ID : 2
Format : E-AC-3
Format/Info : Enhanced Audio Coding 3
Format settings, Endianness : Big
Codec ID : A_EAC3
Duration : 1 h 0 min
Bit rate mode : Constant
Bit rate : 224 kb/s
Channel(s) : 2 channels
Channel positions : Front: L R
Sampling rate : 48.0 kHz
Frame rate : 187.500 FPS (256 SPF)
Compression mode : Lossy
Stream size : 96.2 MiB (3%)
Language : Spanish
Service kind : Complete Main
Default : Yes
Forced : No

Text
ID : 3
Format : UTF-8
Codec ID : S_TEXT/UTF8
Codec ID/Info : UTF-8 Plain Text
Duration : 58 min 8 s
Bit rate : 60 b/s
Count of elements : 932
Stream size : 26.0 KiB (0%)
Title : SDH
Language : English
Default : No
Forced : No





Patria S01E01


Patria S01E01


Patria S01E01


Patria S01E01


Patria S01E01