Prodigal Son S02E01

TV Series
Prodigal Son S02E01

Prodigal Son S02E01
WEB-DL | MKV | 1280x640 | English | H264 @ 5056 kbps | E-AC-3 @ 640 kbps | 43 min 28 s | 1.73 GiB
Subtitles: English
Genre: Crime, Drama, Mystery


The son of a notorious serial killer becomes an acclaimed criminal psychologist who uses his unique insight into how killers think to help the NYPD.

22941058a5bf876741140b837c3ca8ee.mkv (1.7 GB)



General
Unique ID : 307687197887180053787272068233544980877 (0xE77A661734023D4EA3BBC846EAA9D98D)
Complete name : ./22941058a5bf876741140b837c3ca8ee.mkv
Format : Matroska
Format version : Version 4 / Version 2
File size : 1.73 GiB
Duration : 43 min 28 s
Overall bit rate : 5 699 kb/s
Writing application : mkvmerge v45.0.0 ('Heaven in Pennies') 64-bit
Writing library : libebml v1.3.10 + libmatroska v1.5.2

Video
ID : 1
Format : AVC
Format/Info : Advanced Video Codec
Format profile : High@L3.1
Format settings : CABAC / 4 Ref Frames
Format settings, CABAC : Yes
Format settings, RefFrames : 4 frames
Codec ID : V_MPEG4/ISO/AVC
Duration : 43 min 28 s
Bit rate mode : Constant
Bit rate : 5 057 kb/s
Nominal bit rate : 6 000 kb/s
Width : 1 280 pixels
Height : 640 pixels
Display aspect ratio : 2.000
Frame rate mode : Constant
Frame rate : 23.976 (24000/1001) FPS
Color space : YUV
Chroma subsampling : 4:2:0
Bit depth : 8 bits
Scan type : Progressive
Bits/(Pixel*Frame) : 0.257
Stream size : 1.54 GiB (89%)
Default : Yes
Forced : No
Color range : Limited
Color primaries : BT.709
Transfer characteristics : BT.709
Matrix coefficients : BT.709

Audio
ID : 2
Format : E-AC-3
Format/Info : Enhanced Audio Coding 3
Format settings, Endianness : Big
Codec ID : A_EAC3
Duration : 43 min 28 s
Bit rate mode : Constant
Bit rate : 640 kb/s
Channel(s) : 6 channels
Channel positions : Front: L C R, Side: L R, LFE
Sampling rate : 48.0 kHz
Frame rate : 187.500 FPS (256 SPF)
Compression mode : Lossy
Stream size : 199 MiB (11%)
Language : English
Service kind : Complete Main
Default : Yes
Forced : No

Text
ID : 3
Format : UTF-8
Codec ID : S_TEXT/UTF8
Codec ID/Info : UTF-8 Plain Text
Duration : 43 min 23 s
Bit rate : 78 b/s
Count of elements : 976
Stream size : 25.0 KiB (0%)
Title : SDH
Language : English
Default : No
Forced : No





Prodigal Son S02E01


Prodigal Son S02E01


Prodigal Son S02E01


Prodigal Son S02E01


Prodigal Son S02E01