Roadkill S01E03

TV Series
Roadkill S01E03

Roadkill S01E03
WEB-DL | MOV | 1280x720 | English | H264 @ 3754 kbps | AAC @ 128 kbps | 57 min 53 s | 1.57 GiB
Genre: Drama


Politician Peter Laurence's private life is falling apart. Shamelessly untroubled by guilt or remorse, he seeks to further his own agenda whilst others plot to bring him down. Can he out-run his own secrets to win the ultimate prize?

3f816f11d5a7973e61ba947b6d1ccecb.mp4 (1.6 GB)



General
Complete name : ./3f816f11d5a7973e61ba947b6d1ccecb.mp4
Format : MPEG-4
Format profile : Base Media
Codec ID : isom (isom/iso2/avc1/mp41)
File size : 1.57 GiB
Duration : 57 min 53 s
Overall bit rate : 3 890 kb/s
Writing application : Lavf58.49.100

Video
ID : 1
Format : AVC
Format/Info : Advanced Video Codec
Format profile : High@L3.2
Format settings : CABAC / 4 Ref Frames
Format settings, CABAC : Yes
Format settings, RefFrames : 4 frames
Codec ID : avc3
Codec ID/Info : Advanced Video Coding
Duration : 57 min 53 s
Bit rate : 3 754 kb/s
Width : 1 280 pixels
Height : 720 pixels
Display aspect ratio : 16:9
Frame rate mode : Constant
Frame rate : 50.000 FPS
Color space : YUV
Chroma subsampling : 4:2:0
Bit depth : 8 bits
Scan type : Progressive
Bits/(Pixel*Frame) : 0.081
Stream size : 1.52 GiB (97%)
Color range : Limited
Color primaries : BT.709
Transfer characteristics : BT.709
Matrix coefficients : BT.709

Audio
ID : 2
Format : AAC
Format/Info : Advanced Audio Codec
Format profile : LC
Codec ID : mp4a-40-2
Duration : 57 min 53 s
Bit rate mode : Constant
Bit rate : 128 kb/s
Channel(s) : 2 channels
Channel positions : Front: L R
Sampling rate : 48.0 kHz
Frame rate : 46.875 FPS (1024 SPF)
Compression mode : Lossy
Stream size : 53.0 MiB (3%)
Language : English
Default : Yes
Alternate group : 1





Roadkill S01E03


Roadkill S01E03


Roadkill S01E03


Roadkill S01E03


Roadkill S01E03