Roadkill S01E04

TV Series
Roadkill S01E04

Roadkill S01E04
WEB-DL | MOV | 1280x720 | English | H264 @ 3982 kbps | AAC @ 128 kbps | 56 min 14 s | 1.62 GiB
Genre: Drama


Politician Peter Laurence's private life is falling apart. Shamelessly untroubled by guilt or remorse, he seeks to further his own agenda whilst others plot to bring him down. Can he out-run his own secrets to win the ultimate prize?

7f67a25ee71ca6d00186877f7d8b4f31.mp4 (1.6 GB)



General
Complete name : ./7f67a25ee71ca6d00186877f7d8b4f31.mp4
Format : MPEG-4
Format profile : Base Media
Codec ID : isom (isom/iso2/avc1/mp41)
File size : 1.62 GiB
Duration : 56 min 14 s
Overall bit rate : 4 118 kb/s
Writing application : Lavf58.49.100

Video
ID : 1
Format : AVC
Format/Info : Advanced Video Codec
Format profile : High@L3.2
Format settings : CABAC / 4 Ref Frames
Format settings, CABAC : Yes
Format settings, RefFrames : 4 frames
Codec ID : avc3
Codec ID/Info : Advanced Video Coding
Duration : 56 min 14 s
Bit rate : 3 982 kb/s
Width : 1 280 pixels
Height : 720 pixels
Display aspect ratio : 16:9
Frame rate mode : Constant
Frame rate : 50.000 FPS
Color space : YUV
Chroma subsampling : 4:2:0
Bit depth : 8 bits
Scan type : Progressive
Bits/(Pixel*Frame) : 0.086
Stream size : 1.56 GiB (97%)
Color range : Limited
Color primaries : BT.709
Transfer characteristics : BT.709
Matrix coefficients : BT.709

Audio
ID : 2
Format : AAC
Format/Info : Advanced Audio Codec
Format profile : LC
Codec ID : mp4a-40-2
Duration : 56 min 14 s
Bit rate mode : Constant
Bit rate : 128 kb/s
Channel(s) : 2 channels
Channel positions : Front: L R
Sampling rate : 48.0 kHz
Frame rate : 46.875 FPS (1024 SPF)
Compression mode : Lossy
Stream size : 51.5 MiB (3%)
Language : English
Default : Yes
Alternate group : 1





Roadkill S01E04


Roadkill S01E04


Roadkill S01E04


Roadkill S01E04


Roadkill S01E04