Senior Year (2022)

Video
Senior Year (2022)

Senior Year (2022)
WEB-DL | MKV | 1920x1080 | English | H265 @ 5427 kbps | E-AC-3 @ 768 kbps | 1 h 53 min | 5.01 GiB
Subtitles: Français, Deutsch, Italiano, Ελληνικά, English, Українська
Genre: Comedy, Drama

A cheerleading stunt gone wrong landed her in a 20-year coma. Now she's 37, newly awake and ready to live out her high school dream: becoming prom queen.,In 2002 and tells the story of Stephanie, the most popular girl in her high school. She's the captain of the cheerleading squad, dating the quarterback and is well on her way to becoming the prom queen. Girls want to be her and guys want to be with her. She has it all until she falls off the top of the cheerleading pyramid and goes into a coma. Fast forward 20 years later and Ruby finally wakes up from her coma as a 37-year-old woman. She goes back to her high school and tries to assume her role as the star of her school. Most of all, she is still set on winning the crown as prom queen.

3a57434e652945558bdb73d20daef0b2.mkv (5.0 GB)



General
Unique ID : 104154303666674950192572738869326745237 (0x4E5B63A45EDA3DDF653ACCD87A078E95)
Complete name : ./3a57434e652945558bdb73d20daef0b2.mkv
Format : Matroska
Format version : Version 4 / Version 2
File size : 5.01 GiB
Duration : 1 h 53 min
Overall bit rate : 6 321 kb/s
Encoded date : UTC 2022-05-13 07:06:58
Writing application : mkvmerge v67.0.0 ('Under Stars') 64-bit
Writing library : libebml v1.4.2 + libmatroska v1.6.4

Video
ID : 1
Format : HEVC
Format/Info : High Efficiency Video Coding
Format profile : Main 10@L4@Main
Codec ID : V_MPEGH/ISO/HEVC
Duration : 1 h 53 min
Bit rate : 5 427 kb/s
Width : 1 920 pixels
Height : 1 080 pixels
Display aspect ratio : 16:9
Frame rate mode : Constant
Frame rate : 24.000 FPS
Color space : YUV
Chroma subsampling : 4:2:0 (Type 2)
Bit depth : 10 bits
Bits/(Pixel*Frame) : 0.109
Stream size : 4.30 GiB (86%)
Default : Yes
Forced : No
Color range : Limited
Color primaries : BT.2020
Transfer characteristics : PQ
Matrix coefficients : BT.2020 non-constant
Mastering display color primaries : R: x=0.680000 y=0.320000, G: x=0.265000 y=0.690000, B: x=0.150000 y=0.060000, White point: x=0.312700 y=0.329000
Mastering display luminance : min: 0.0001 cd/m2, max: 1000.0000 cd/m2
Maximum Content Light Level : 990 cd/m2
Maximum Frame-Average Light Level : 636 cd/m2

Audio
ID : 2
Format : E-AC-3
Format/Info : Enhanced Audio Coding 3
Format profile : E-AC-3+Atmos / E-AC-3
Format settings, Endianness : Big
Codec ID : A_EAC3
Duration : 1 h 53 min
Bit rate mode : Constant
Bit rate : 768 kb/s
Channel(s) : 15 objects / 6 channels
Channel positions : 15 objects / Front: L C R, Side: L R, LFE
Sampling rate : 48.0 kHz
Frame rate : 187.500 FPS (256 SPF)
Compression mode : Lossy
Stream size : 624 MiB (12%)
Title : English
Language : English
Service kind : Complete Main
Default : No
Forced : No

Text #1
ID : 3
Format : UTF-8
Codec ID : S_TEXT/UTF8
Codec ID/Info : UTF-8 Plain Text
Title : English
Language : English
Default : No
Forced : No

Text #2
ID : 4
Format : UTF-8
Codec ID : S_TEXT/UTF8
Codec ID/Info : UTF-8 Plain Text
Title : French
Language : French
Default : No
Forced : No

Text #3
ID : 5
Format : UTF-8
Codec ID : S_TEXT/UTF8
Codec ID/Info : UTF-8 Plain Text
Title : German
Language : German
Default : No
Forced : No

Text #4
ID : 6
Format : UTF-8
Codec ID : S_TEXT/UTF8
Codec ID/Info : UTF-8 Plain Text
Title : Greek
Language : Greek
Default : No
Forced : No

Text #5
ID : 7
Format : UTF-8
Codec ID : S_TEXT/UTF8
Codec ID/Info : UTF-8 Plain Text
Title : Italian
Language : Italian
Default : No
Forced : No

Text #6
ID : 8
Format : UTF-8
Codec ID : S_TEXT/UTF8
Codec ID/Info : UTF-8 Plain Text
Title : Ukrainian
Language : Ukrainian
Default : No
Forced : No





Senior Year (2022)


Senior Year (2022)


Senior Year (2022)


Senior Year (2022)


Senior Year (2022)