She-Ra and the Princesses of Power S04E07

TV Series
She-Ra and the Princesses of Power S04E07

She-Ra and the Princesses of Power S04E07
WEB-DL | MKV | 1920x1080 | English | H264 @ 2870 kbps | E-AC-3 @ 640 kbps | 24 min 8 s | 592 MiB
Subtitles: ภาษาไทย, Français, Español, 日本語, עברית, 한국어, Ελληνικά, Nederlands, Dansk, Bahasa Indonesia, Bokmål, 中文, Suomi, Polski, Türkçe, English, Română, العربية, Deutsch, Svenska, Italiano, Português
Genre: Animation


In this reboot of the '80s series, a magic sword transforms an orphan girl into warrior She-Ra, who unites a rebellion to fight against evil.

9b94f9b5046048688d4a0f87f03dde84.mkv (592.2 MB)



General
Unique ID : 279681878041529532493386852756972324701 (0xD268C537C5A5942D9BC2D9F0C0CB475D)
Complete name : ./9b94f9b5046048688d4a0f87f03dde84.mkv
Format : Matroska
Format version : Version 4 / Version 2
File size : 592 MiB
Duration : 24 min 8 s
Overall bit rate mode : Variable
Overall bit rate : 3 430 kb/s
Encoded date : UTC 2019-11-05 20:32:20
Writing application : mkvmerge v35.0.0 ('All The Love In The World') 64-bit
Writing library : libebml v1.3.9 + libmatroska v1.5.2

Video
ID : 1
Format : AVC
Format/Info : Advanced Video Codec
Format profile : Main@L4
Format settings : CABAC / 3 Ref Frames
Format settings, CABAC : Yes
Format settings, RefFrames : 3 frames
Codec ID : V_MPEG4/ISO/AVC
Duration : 24 min 8 s
Bit rate mode : Variable
Bit rate : 2 870 kb/s
Maximum bit rate : 4 305 kb/s
Width : 1 920 pixels
Height : 1 080 pixels
Display aspect ratio : 16:9
Frame rate mode : Constant
Frame rate : 23.976 (24000/1001) FPS
Color space : YUV
Chroma subsampling : 4:2:0
Bit depth : 8 bits
Scan type : Progressive
Bits/(Pixel*Frame) : 0.058
Stream size : 481 MiB (81%)
Writing library : x264 core 148 r2715 7e75228
Encoding settings : cabac=1 / ref=3 / deblock=1:0:0 / analyse=0x1:0x111 / me=umh / subme=10 / psy=1 / psy_rd=1.00:0.00 / mixed_ref=1 / me_range=24 / chroma_me=1 / trellis=2 / 8x8dct=0 / cqm=0 / deadzone=21,11 / fast_pskip=1 / chroma_qp_offset=-2 / threads=8 / lookahead_threads=1 / sliced_threads=0 / nr=0 / decimate=1 / interlaced=0 / bluray_compat=0 / stitchable=1 / constrained_intra=0 / bframes=2 / b_pyramid=0 / b_adapt=2 / b_bias=0 / direct=3 / weightb=1 / open_gop=0 / weightp=2 / keyint=48 / keyint_min=25 / scenecut=0 / intra_refresh=0 / rc_lookahead=48 / rc=2pass / mbtree=1 / bitrate=2870 / ratetol=1.0 / qcomp=0.50 / qpmin=6 / qpmax=51 / qpstep=4 / cplxblur=20.0 / qblur=0.5 / vbv_maxrate=4305 / vbv_bufsize=5740 / nal_hrd=vbr / filler=0 / ip_ratio=1.40 / aq=1:1.00
Default : Yes
Forced : No

Audio
ID : 2
Format : E-AC-3
Format/Info : Enhanced Audio Coding 3
Format settings, Endianness : Big
Codec ID : A_EAC3
Duration : 24 min 8 s
Bit rate mode : Constant
Bit rate : 640 kb/s
Channel(s) : 6 channels
Channel positions : Front: L C R, Side: L R, LFE
Sampling rate : 48.0 kHz
Frame rate : 187.500 FPS (256 SPF)
Compression mode : Lossy
Stream size : 111 MiB (19%)
Language : English
Service kind : Complete Main
Default : Yes
Forced : No

Text #1
ID : 3
Format : UTF-8
Codec ID : S_TEXT/UTF8
Codec ID/Info : UTF-8 Plain Text
Duration : 22 min 5 s
Bit rate : 92 b/s
Count of elements : 392
Stream size : 15.0 KiB (0%)
Title : SDH
Language : English
Default : No
Forced : No

Text #2
ID : 4
Format : UTF-8
Codec ID : S_TEXT/UTF8
Codec ID/Info : UTF-8 Plain Text
Duration : 22 min 21 s
Bit rate : 146 b/s
Count of elements : 365
Stream size : 24.0 KiB (0%)
Language : Arabic
Default : No
Forced : No

Text #3
ID : 5
Format : UTF-8
Codec ID : S_TEXT/UTF8
Codec ID/Info : UTF-8 Plain Text
Duration : 22 min 21 s
Bit rate : 62 b/s
Count of elements : 349
Stream size : 10.2 KiB (0%)
Language : Danish
Default : No
Forced : No

Text #4
ID : 6
Format : UTF-8
Codec ID : S_TEXT/UTF8
Codec ID/Info : UTF-8 Plain Text
Duration : 22 min 21 s
Bit rate : 71 b/s
Count of elements : 314
Stream size : 11.8 KiB (0%)
Language : German
Default : No
Forced : No

Text #5
ID : 7
Format : UTF-8
Codec ID : S_TEXT/UTF8
Codec ID/Info : UTF-8 Plain Text
Duration : 22 min 21 s
Bit rate : 117 b/s
Count of elements : 355
Stream size : 19.3 KiB (0%)
Language : Greek
Default : No
Forced : No

Text #6
ID : 8
Format : UTF-8
Codec ID : S_TEXT/UTF8
Codec ID/Info : UTF-8 Plain Text
Duration : 22 min 21 s
Bit rate : 71 b/s
Count of elements : 365
Stream size : 11.6 KiB (0%)
Title : Latin American
Language : Spanish
Default : No
Forced : No

Text #7
ID : 9
Format : UTF-8
Codec ID : S_TEXT/UTF8
Codec ID/Info : UTF-8 Plain Text
Duration : 22 min 21 s
Bit rate : 71 b/s
Count of elements : 363
Stream size : 11.7 KiB (0%)
Title : European
Language : Spanish
Default : No
Forced : No

Text #8
ID : 10
Format : UTF-8
Codec ID : S_TEXT/UTF8
Codec ID/Info : UTF-8 Plain Text
Duration : 22 min 21 s
Bit rate : 71 b/s
Count of elements : 232
Stream size : 11.7 KiB (0%)
Language : Finnish
Default : No
Forced : No

Text #9
ID : 11
Format : UTF-8
Codec ID : S_TEXT/UTF8
Codec ID/Info : UTF-8 Plain Text
Duration : 22 min 21 s
Bit rate : 66 b/s
Count of elements : 304
Stream size : 11.0 KiB (0%)
Language : French
Default : No
Forced : No

Text #10
ID : 12
Format : UTF-8
Codec ID : S_TEXT/UTF8
Codec ID/Info : UTF-8 Plain Text
Duration : 22 min 21 s
Bit rate : 119 b/s
Count of elements : 360
Stream size : 19.5 KiB (0%)
Language : Hebrew
Default : No
Forced : No

Text #11
ID : 13
Format : UTF-8
Codec ID : S_TEXT/UTF8
Codec ID/Info : UTF-8 Plain Text
Duration : 22 min 21 s
Bit rate : 71 b/s
Count of elements : 364
Stream size : 11.7 KiB (0%)
Language : Indonesian
Default : No
Forced : No

Text #12
ID : 14
Format : UTF-8
Codec ID : S_TEXT/UTF8
Codec ID/Info : UTF-8 Plain Text
Duration : 22 min 21 s
Bit rate : 67 b/s
Count of elements : 362
Stream size : 11.0 KiB (0%)
Language : Italian
Default : No
Forced : No

Text #13
ID : 15
Format : UTF-8
Codec ID : S_TEXT/UTF8
Codec ID/Info : UTF-8 Plain Text
Duration : 22 min 22 s
Bit rate : 87 b/s
Count of elements : 331
Stream size : 14.3 KiB (0%)
Language : Japanese
Default : No
Forced : No

Text #14
ID : 16
Format : UTF-8
Codec ID : S_TEXT/UTF8
Codec ID/Info : UTF-8 Plain Text
Duration : 22 min 21 s
Bit rate : 102 b/s
Count of elements : 365
Stream size : 16.8 KiB (0%)
Language : Korean
Default : No
Forced : No

Text #15
ID : 17
Format : UTF-8
Codec ID : S_TEXT/UTF8
Codec ID/Info : UTF-8 Plain Text
Duration : 22 min 21 s
Bit rate : 65 b/s
Count of elements : 252
Stream size : 10.8 KiB (0%)
Language : Norwegian Bokmal
Default : No
Forced : No

Text #16
ID : 18
Format : UTF-8
Codec ID : S_TEXT/UTF8
Codec ID/Info : UTF-8 Plain Text
Duration : 22 min 21 s
Bit rate : 66 b/s
Count of elements : 262
Stream size : 10.9 KiB (0%)
Language : Dutch
Default : No
Forced : No

Text #17
ID : 19
Format : UTF-8
Codec ID : S_TEXT/UTF8
Codec ID/Info : UTF-8 Plain Text
Duration : 22 min 21 s
Bit rate : 69 b/s
Count of elements : 365
Stream size : 11.4 KiB (0%)
Language : Polish
Default : No
Forced : No

Text #18
ID : 20
Format : UTF-8
Codec ID : S_TEXT/UTF8
Codec ID/Info : UTF-8 Plain Text
Duration : 22 min 21 s
Bit rate : 69 b/s
Count of elements : 362
Stream size : 11.4 KiB (0%)
Title : European
Language : Portuguese
Default : No
Forced : No

Text #19
ID : 21
Format : UTF-8
Codec ID : S_TEXT/UTF8
Codec ID/Info : UTF-8 Plain Text
Duration : 22 min 21 s
Bit rate : 71 b/s
Count of elements : 365
Stream size : 11.7 KiB (0%)
Title : Brazilian
Language : Portuguese
Default : No
Forced : No

Text #20
ID : 22
Format : UTF-8
Codec ID : S_TEXT/UTF8
Codec ID/Info : UTF-8 Plain Text
Duration : 22 min 21 s
Bit rate : 78 b/s
Count of elements : 365
Stream size : 12.9 KiB (0%)
Language : Romanian
Default : No
Forced : No

Text #21
ID : 23
Format : UTF-8
Codec ID : S_TEXT/UTF8
Codec ID/Info : UTF-8 Plain Text
Duration : 22 min 21 s
Bit rate : 67 b/s
Count of elements : 307
Stream size : 11.1 KiB (0%)
Language : Swedish
Default : No
Forced : No

Text #22
ID : 24
Format : UTF-8
Codec ID : S_TEXT/UTF8
Codec ID/Info : UTF-8 Plain Text
Duration : 22 min 21 s
Bit rate : 221 b/s
Count of elements : 365
Stream size : 36.2 KiB (0%)
Language : Thai
Default : No
Forced : No

Text #23
ID : 25
Format : UTF-8
Codec ID : S_TEXT/UTF8
Codec ID/Info : UTF-8 Plain Text
Duration : 22 min 21 s
Bit rate : 72 b/s
Count of elements : 366
Stream size : 11.8 KiB (0%)
Language : Turkish
Default : No
Forced : No

Text #24
ID : 26
Format : UTF-8
Codec ID : S_TEXT/UTF8
Codec ID/Info : UTF-8 Plain Text
Duration : 22 min 21 s
Bit rate : 83 b/s
Count of elements : 365
Stream size : 13.7 KiB (0%)
Title : Simplified
Language : Chinese
Default : No
Forced : No

Text #25
ID : 27
Format : UTF-8
Codec ID : S_TEXT/UTF8
Codec ID/Info : UTF-8 Plain Text
Duration : 22 min 21 s
Bit rate : 80 b/s
Count of elements : 365
Stream size : 13.2 KiB (0%)
Title : Traditional
Language : Chinese
Default : No
Forced : No





She-Ra and the Princesses of Power S04E07


She-Ra and the Princesses of Power S04E07


She-Ra and the Princesses of Power S04E07


She-Ra and the Princesses of Power S04E07


She-Ra and the Princesses of Power S04E07