Snowpiercer S01E03

TV Series
Snowpiercer S01E03

Snowpiercer S01E03
WEB-DL | MKV | 1920x1080 | English | H264 @ 8133 kbps | E-AC-3 @ 640 kbps | 44 min 32 s | 2.73 GiB
Subtitles: English


Set more than seven years after the world has become a frozen wasteland, the remnants of humanity inhabit a gigantic, perpetually-moving train that circles the globe as class warfare, social injustice and the politics of survival play out.

47b69ed471ae26d8483561b7f013c419.mkv (2.7 GB)



General
Unique ID : 302385841476885289381753033797728731636 (0xE37D650A22B4B244084A6E3378F001F4)
Complete name : ./47b69ed471ae26d8483561b7f013c419.mkv
Format : Matroska
Format version : Version 4 / Version 2
File size : 2.73 GiB
Duration : 44 min 32 s
Overall bit rate : 8 775 kb/s
Encoded date : UTC 2020-06-01 07:08:54
Writing application : mkvmerge v21.0.0 ('Tardigrades Will Inherit The Earth') 64-bit
Writing library : libebml v1.3.5 + libmatroska v1.4.8

Video
ID : 1
Format : AVC
Format/Info : Advanced Video Codec
Format profile : High@L4
Format settings : CABAC / 4 Ref Frames
Format settings, CABAC : Yes
Format settings, RefFrames : 4 frames
Codec ID : V_MPEG4/ISO/AVC
Duration : 44 min 32 s
Bit rate mode : Constant
Bit rate : 8 133 kb/s
Nominal bit rate : 10 000 kb/s
Width : 1 920 pixels
Height : 1 080 pixels
Display aspect ratio : 16:9
Frame rate mode : Constant
Frame rate : 23.976 (24000/1001) FPS
Color space : YUV
Chroma subsampling : 4:2:0
Bit depth : 8 bits
Scan type : Progressive
Bits/(Pixel*Frame) : 0.164
Stream size : 2.53 GiB (93%)
Default : Yes
Forced : No
Color range : Limited
Color primaries : BT.709
Transfer characteristics : BT.709
Matrix coefficients : BT.709

Audio
ID : 2
Format : E-AC-3
Format/Info : Enhanced Audio Coding 3
Format settings, Endianness : Big
Codec ID : A_EAC3
Duration : 44 min 32 s
Bit rate mode : Constant
Bit rate : 640 kb/s
Channel(s) : 6 channels
Channel positions : Front: L C R, Side: L R, LFE
Sampling rate : 48.0 kHz
Frame rate : 187.500 FPS (256 SPF)
Compression mode : Lossy
Stream size : 204 MiB (7%)
Language : English
Service kind : Complete Main
Default : Yes
Forced : No

Text #1
ID : 3
Format : UTF-8
Codec ID : S_TEXT/UTF8
Codec ID/Info : UTF-8 Plain Text
Duration : 42 min 52 s
Bit rate : 64 b/s
Count of elements : 691
Stream size : 20.3 KiB (0%)
Language : English
Default : No
Forced : No

Text #2
ID : 4
Format : UTF-8
Codec ID : S_TEXT/UTF8
Codec ID/Info : UTF-8 Plain Text
Duration : 44 min 22 s
Bit rate : 68 b/s
Count of elements : 843
Stream size : 22.4 KiB (0%)
Title : SDH
Language : English
Default : No
Forced : No





Snowpiercer S01E03


Snowpiercer S01E03


Snowpiercer S01E03


Snowpiercer S01E03


Snowpiercer S01E03