The American West S01E01

TV Series
The American West S01E01

The American West S01E01
WEBRip | MKV | 1920x1080 | H264 @ 6737 kbps | AAC @ 125 kbps | 43 min 13 s | 2.07 GiB
Genre: Documentary


Spanning the years 1865 to 1890, The American West, will show how – in the aftermath of the Civil War – the United States transforms into the “land of opportunity.” Viewers will be transported into the violent world of cowboys, Indians, outlaws and law men. The 8-episode limited event series chronicles the personal, little-known stories of Western legends such as Jesse James, Billy the Kid, Wyatt Earp, Crazy Horse and Sitting Bull. The series features exclusive interviews with notable names from classic Western films, including Robert Redford, James Caan, Burt Reynolds, Tom Selleck, Kiefer Sutherland, Mark Harmon, Ed Harris and more.

the.american.west.s01e01.america.divided.1080p.webrip.x264-heat.mkv (2.1 GB)



General
Unique ID : 27720696447143489311024050032305538571 (0x14DACFDB1518B07F46D55F5B2184860B)
Complete name : ./the.american.west.s01e01.america.divided.1080p.webrip.x264-heat.mkv
Format : Matroska
Format version : Version 4 / Version 2
File size : 2.07 GiB
Duration : 43 min 13 s
Overall bit rate : 6 866 kb/s
Encoded date : UTC 2017-04-05 22:30:03
Writing application : mkvmerge v10.0.0 ('To Drown In You') 64bit
Writing library : libebml v1.3.4 + libmatroska v1.4.5

Video
ID : 1
Format : AVC
Format/Info : Advanced Video Codec
Format profile : High@L4.1
Format settings : CABAC / 4 Ref Frames
Format settings, CABAC : Yes
Format settings, RefFrames : 4 frames
Codec ID : V_MPEG4/ISO/AVC
Duration : 43 min 13 s
Bit rate : 6 738 kb/s
Width : 1 920 pixels
Height : 1 080 pixels
Display aspect ratio : 16:9
Frame rate mode : Constant
Frame rate : 23.976 (24000/1001) FPS
Color space : YUV
Chroma subsampling : 4:2:0
Bit depth : 8 bits
Scan type : Progressive
Bits/(Pixel*Frame) : 0.136
Stream size : 2.03 GiB (98%)
Writing library : x264 core 148 r2762 90a61ec
Encoding settings : cabac=1 / ref=4 / deblock=1:0:0 / analyse=0x3:0x113 / me=hex / subme=8 / psy=1 / psy_rd=1.00:0.00 / mixed_ref=1 / me_range=16 / chroma_me=1 / trellis=2 / 8x8dct=1 / cqm=0 / deadzone=21,11 / fast_pskip=1 / chroma_qp_offset=-2 / threads=12 / lookahead_threads=2 / sliced_threads=0 / nr=0 / decimate=1 / interlaced=0 / bluray_compat=0 / constrained_intra=0 / bframes=3 / b_pyramid=2 / b_adapt=1 / b_bias=0 / direct=3 / weightb=1 / open_gop=0 / weightp=2 / keyint=250 / keyint_min=23 / scenecut=40 / intra_refresh=0 / rc_lookahead=50 / rc=crf / mbtree=1 / crf=20.0 / qcomp=0.60 / qpmin=0 / qpmax=69 / qpstep=4 / ip_ratio=1.40 / aq=1:1.00
Language : English
Default : Yes
Forced : No
Color range : Limited
Matrix coefficients : BT.709

Audio
ID : 2
Format : AAC
Format/Info : Advanced Audio Codec
Format profile : LC
Codec ID : A_AAC-2
Duration : 43 min 12 s
Bit rate : 126 kb/s
Channel(s) : 2 channels
Channel positions : Front: L R
Sampling rate : 44.1 kHz
Frame rate : 43.066 FPS (1024 SPF)
Compression mode : Lossy
Delay relative to video : 20 ms
Stream size : 38.8 MiB (2%)
Default : Yes
Forced : No





The American West S01E01


The American West S01E01


The American West S01E01


The American West S01E01


The American West S01E01