The American West S01E04

TV Series
The American West S01E04

The American West S01E04
WEB-DL | MKV | 1280x718 | English | H264 @ 3936 kbps | AAC @ 124 kbps | 43 min 5 s | 1.22 GiB
Subtitles: English
Genre: Documentary


Spanning the years 1865 to 1890, The American West, will show how – in the aftermath of the Civil War – the United States transforms into the “land of opportunity.” Viewers will be transported into the violent world of cowboys, Indians, outlaws and law men. The 8-episode limited event series chronicles the personal, little-known stories of Western legends such as Jesse James, Billy the Kid, Wyatt Earp, Crazy Horse and Sitting Bull. The series features exclusive interviews with notable names from classic Western films, including Robert Redford, James Caan, Burt Reynolds, Tom Selleck, Kiefer Sutherland, Mark Harmon, Ed Harris and more.

The.American.West.S01E04.Showdown.720p.WEB-DL.AAC2.0.H.264-TAW.mkv (1.2 GB)



General
Unique ID : 73779873975314036565836896855351646313 (0x37817CA2BD7973271D5C65D691145869)
Complete name : ./The.American.West.S01E04.Showdown.720p.WEB-DL.AAC2.0.H.264-TAW.mkv
Format : Matroska
Format version : Version 4 / Version 2
File size : 1.22 GiB
Duration : 43 min 5 s
Overall bit rate mode : Variable
Overall bit rate : 4 063 kb/s
Encoded date : UTC 2016-07-03 17:35:46
Writing application : mkvmerge v9.1.0 ('Little Earthquakes') 64bit
Writing library : libebml v1.3.3 + libmatroska v1.4.4

Video
ID : 2
Format : AVC
Format/Info : Advanced Video Codec
Format profile : High@L3.1
Format settings : CABAC / 2 Ref Frames
Format settings, CABAC : Yes
Format settings, RefFrames : 2 frames
Codec ID : V_MPEG4/ISO/AVC
Duration : 43 min 5 s
Bit rate mode : Variable
Bit rate : 3 936 kb/s
Maximum bit rate : 768 kb/s
Width : 1 280 pixels
Height : 718 pixels
Display aspect ratio : 16:9
Frame rate mode : Constant
Frame rate : 23.976 (23976/1000) FPS
Original frame rate : 25.000 FPS
Color space : YUV
Chroma subsampling : 4:2:0
Bit depth : 8 bits
Scan type : Progressive
Bits/(Pixel*Frame) : 0.179
Stream size : 1.18 GiB (97%)
Language : English
Default : Yes
Forced : No

Audio
ID : 1
Format : AAC
Format/Info : Advanced Audio Codec
Format profile : LC
Codec ID : A_AAC-2
Duration : 43 min 5 s
Bit rate : 124 kb/s
Channel(s) : 2 channels
Channel positions : Front: L R
Sampling rate : 48.0 kHz
Frame rate : 46.875 FPS (1024 SPF)
Compression mode : Lossy
Stream size : 38.3 MiB (3%)
Language : English
Default : Yes
Forced : No

Text
ID : 3
Format : UTF-8
Codec ID : S_TEXT/UTF8
Codec ID/Info : UTF-8 Plain Text
Duration : 42 min 25 s
Bit rate : 84 b/s
Count of elements : 575
Stream size : 26.2 KiB (0%)
Language : English
Default : Yes
Forced : No





The American West S01E04


The American West S01E04


The American West S01E04


The American West S01E04


The American West S01E04