The American West S01E08

TV Series
The American West S01E08

The American West S01E08
WEB-DL | MKV | 1920x1080 | English | H264 @ 9151 kbps | E-AC-3 @ 224 kbps | 43 min 0 s | 2.82 GiB
Subtitles: English
Genre: Documentary


Spanning the years 1865 to 1890, The American West, will show how – in the aftermath of the Civil War – the United States transforms into the “land of opportunity.” Viewers will be transported into the violent world of cowboys, Indians, outlaws and law men. The 8-episode limited event series chronicles the personal, little-known stories of Western legends such as Jesse James, Billy the Kid, Wyatt Earp, Crazy Horse and Sitting Bull. The series features exclusive interviews with notable names from classic Western films, including Robert Redford, James Caan, Burt Reynolds, Tom Selleck, Kiefer Sutherland, Mark Harmon, Ed Harris and more.

f7eacd62b0e97ece2bd7e5e474ab3d86.mkv (2.8 GB)



General
Unique ID : 275125795641143200259776181439564390791 (0xCEFB4D032F9BF19EEA07E10508A8A187)
Complete name : ./f7eacd62b0e97ece2bd7e5e474ab3d86.mkv
Format : Matroska
Format version : Version 4 / Version 2
File size : 2.82 GiB
Duration : 43 min 0 s
Overall bit rate : 9 377 kb/s
Encoded date : UTC 2020-02-20 06:15:30
Writing application : mkvmerge v43.0.0 ('The Quartermaster') 64-bit
Writing library : libebml v1.3.10 + libmatroska v1.5.2

Video
ID : 1
Format : AVC
Format/Info : Advanced Video Codec
Format profile : High@L4
Format settings : CABAC / 4 Ref Frames
Format settings, CABAC : Yes
Format settings, RefFrames : 4 frames
Codec ID : V_MPEG4/ISO/AVC
Duration : 43 min 0 s
Bit rate mode : Constant
Bit rate : 9 151 kb/s
Nominal bit rate : 10 000 kb/s
Width : 1 920 pixels
Height : 1 080 pixels
Display aspect ratio : 16:9
Frame rate mode : Constant
Frame rate : 23.976 (24000/1001) FPS
Color space : YUV
Chroma subsampling : 4:2:0
Bit depth : 8 bits
Scan type : Progressive
Bits/(Pixel*Frame) : 0.184
Stream size : 2.75 GiB (98%)
Default : Yes
Forced : No
Color range : Limited
Color primaries : BT.709
Transfer characteristics : BT.709
Matrix coefficients : BT.709

Audio
ID : 2
Format : E-AC-3
Format/Info : Enhanced Audio Coding 3
Format settings, Endianness : Big
Codec ID : A_EAC3
Duration : 43 min 0 s
Bit rate mode : Constant
Bit rate : 224 kb/s
Channel(s) : 2 channels
Channel positions : Front: L R
Sampling rate : 48.0 kHz
Frame rate : 187.500 FPS (256 SPF)
Compression mode : Lossy
Stream size : 68.9 MiB (2%)
Language : English
Service kind : Complete Main
Default : Yes
Forced : No

Text
ID : 3
Format : UTF-8
Codec ID : S_TEXT/UTF8
Codec ID/Info : UTF-8 Plain Text
Duration : 42 min 21 s
Bit rate : 69 b/s
Count of elements : 608
Stream size : 21.4 KiB (0%)
Title : SDH
Language : English
Default : No
Forced : No

Menu
00:00:00.000 : en:Previously On
00:01:17.000 : en:Opening Credits, Title Sequence
00:02:01.000 : en:Scene 3
00:09:45.000 : en:Scene 4
00:16:03.000 : en:Scene 5
00:24:25.000 : en:Scene 6
00:29:48.000 : en:Scene 7
00:37:02.000 : en:Scene 8
00:42:27.000 : en:End Credits





The American West S01E08


The American West S01E08


The American West S01E08


The American West S01E08


The American West S01E08