The Business of Drugs S01E02

TV Series
The Business of Drugs S01E02

The Business of Drugs S01E02
WEB-DL | MKV | 1280x720 | English | H264 @ 2610 kbps | E-AC-3 @ 640 kbps | 45 min 37 s | 1.02 GiB
Subtitles: ภาษาไทย, Français, tiếng Việt, Español, Magyar, 日本語, עברית, 한국어, Русский, Ελληνικά, Nederlands, Dansk, Bahasa Indonesia, Bokmål, 中文, Suomi, Polski, Türkçe, English, Română, العربية, Deutsch, Svenska, Italiano, Português, Čeština
Genre: Crime, Documentary


To detail how drugs push people into risky — even deadly — behaviors, a former CIA analyst investigates the economics of six illicit substances.

The.Business.of.Drugs.S01E01.Cocaine.720p.NF.WEB-DL.DDP5.1.H.264-NTb.mkv (1.0 GB)
The.Business.of.Drugs.S01E06.Opioids.720p.NF.WEB-DL.DDP5.1.H.264-NTb.srt (47.6 KB)
The.Business.of.Drugs.S01E02.Synthetics.720p.NF.WEB-DL.DDP5.1.H.264-NTb.mkv (931.1 MB)
The.Business.of.Drugs.S01E05.Cannabis.720p.NF.WEB-DL.DDP5.1.H.264-NTb.mkv (806.0 MB)
The.Business.of.Drugs.S01E03.Heroin.720p.NF.WEB-DL.DDP5.1.H.264-NTb.srt (49.2 KB)
The.Business.of.Drugs.S01E05.Cannabis.720p.NF.WEB-DL.DDP5.1.H.264-NTb.srt (56.5 KB)
The.Business.of.Drugs.S01E04.Meth.720p.NF.WEB-DL.DDP5.1.H.264-NTb.srt (59.5 KB)
The.Business.of.Drugs.S01E06.Opioids.720p.NF.WEB-DL.DDP5.1.H.264-NTb.mkv (543.9 MB)
The.Business.of.Drugs.S01E04.Meth.720p.NF.WEB-DL.DDP5.1.H.264-NTb.mkv (1023.3 MB)
The.Business.of.Drugs.S01E01.Cocaine.720p.NF.WEB-DL.DDP5.1.H.264-NTb.srt (49.6 KB)
The.Business.of.Drugs.S01E03.Heroin.720p.NF.WEB-DL.DDP5.1.H.264-NTb.mkv (807.7 MB)
The.Business.of.Drugs.S01E02.Synthetics.720p.NF.WEB-DL.DDP5.1.H.264-NTb.srt (49.7 KB)



General
Unique ID : 109403984617449884204530979578367220015 (0x524E70E57114365B471E1811ACC0992F)
Complete name : ./The.Business.of.Drugs.S01E01.Cocaine.720p.NF.WEB-DL.DDP5.1.H.264-NTb.mkv
Format : Matroska
Format version : Version 4 / Version 2
File size : 1.02 GiB
Duration : 45 min 37 s
Overall bit rate mode : Variable
Overall bit rate : 3 214 kb/s
Encoded date : UTC 2020-07-14 07:15:54
Writing application : mkvmerge v47.0.0 ('Black Flag') 64-bit
Writing library : libebml v1.3.10 + libmatroska v1.5.2

Video
ID : 1
Format : AVC
Format/Info : Advanced Video Codec
Format profile : Main@L3.1
Format settings : CABAC / 3 Ref Frames
Format settings, CABAC : Yes
Format settings, RefFrames : 3 frames
Codec ID : V_MPEG4/ISO/AVC
Duration : 45 min 37 s
Bit rate mode : Variable
Bit rate : 2 610 kb/s
Maximum bit rate : 3 915 kb/s
Width : 1 280 pixels
Height : 720 pixels
Display aspect ratio : 16:9
Frame rate mode : Constant
Frame rate : 23.976 (24000/1001) FPS
Color space : YUV
Chroma subsampling : 4:2:0
Bit depth : 8 bits
Scan type : Progressive
Bits/(Pixel*Frame) : 0.118
Stream size : 837 MiB (80%)
Writing library : x264 core 148 r2717 0d2410d
Encoding settings : cabac=1 / ref=3 / deblock=1:0:0 / analyse=0x1:0x111 / me=umh / subme=10 / psy=1 / psy_rd=1.00:0.00 / mixed_ref=1 / me_range=24 / chroma_me=1 / trellis=2 / 8x8dct=0 / cqm=0 / deadzone=21,11 / fast_pskip=1 / chroma_qp_offset=-2 / threads=6 / lookahead_threads=1 / sliced_threads=0 / nr=0 / decimate=1 / interlaced=0 / bluray_compat=0 / stitchable=1 / constrained_intra=0 / bframes=2 / b_pyramid=0 / b_adapt=2 / b_bias=0 / direct=3 / weightb=1 / open_gop=0 / weightp=2 / keyint=250 / keyint_min=23 / scenecut=0 / intra_refresh=0 / rc_lookahead=48 / rc=2pass / mbtree=1 / bitrate=2610 / ratetol=1.0 / qcomp=0.50 / qpmin=6 / qpmax=51 / qpstep=4 / cplxblur=20.0 / qblur=0.5 / vbv_maxrate=3915 / vbv_bufsize=5220 / nal_hrd=vbr / filler=0 / ip_ratio=1.40 / aq=1:1.00
Default : Yes
Forced : No

Audio
ID : 2
Format : E-AC-3
Format/Info : Enhanced Audio Coding 3
Format settings, Endianness : Big
Codec ID : A_EAC3
Duration : 45 min 37 s
Bit rate mode : Constant
Bit rate : 640 kb/s
Channel(s) : 6 channels
Channel positions : Front: L C R, Side: L R, LFE
Sampling rate : 48.0 kHz
Frame rate : 187.500 FPS (256 SPF)
Compression mode : Lossy
Stream size : 209 MiB (20%)
Language : English
Service kind : Complete Main
Default : Yes
Forced : No

Text #1
ID : 3
Format : UTF-8
Codec ID : S_TEXT/UTF8
Codec ID/Info : UTF-8 Plain Text
Duration : 35 min 11 s
Bit rate : 25 b/s
Count of elements : 184
Stream size : 6.67 KiB (0%)
Title : Forced
Language : English
Default : Yes
Forced : Yes

Text #2
ID : 4
Format : UTF-8
Codec ID : S_TEXT/UTF8
Codec ID/Info : UTF-8 Plain Text
Duration : 43 min 59 s
Bit rate : 100 b/s
Count of elements : 693
Stream size : 32.3 KiB (0%)
Title : SDH
Language : English
Default : No
Forced : No

Text #3
ID : 5
Format : UTF-8
Codec ID : S_TEXT/UTF8
Codec ID/Info : UTF-8 Plain Text
Duration : 44 min 6 s
Bit rate : 153 b/s
Count of elements : 711
Stream size : 49.7 KiB (0%)
Language : Arabic
Default : No
Forced : No

Text #4
ID : 6
Format : UTF-8
Codec ID : S_TEXT/UTF8
Codec ID/Info : UTF-8 Plain Text
Duration : 44 min 45 s
Bit rate : 89 b/s
Count of elements : 671
Stream size : 29.4 KiB (0%)
Language : Czech
Default : No
Forced : No

Text #5
ID : 7
Format : UTF-8
Codec ID : S_TEXT/UTF8
Codec ID/Info : UTF-8 Plain Text
Duration : 44 min 44 s
Bit rate : 82 b/s
Count of elements : 724
Stream size : 26.9 KiB (0%)
Language : Danish
Default : No
Forced : No

Text #6
ID : 8
Format : UTF-8
Codec ID : S_TEXT/UTF8
Codec ID/Info : UTF-8 Plain Text
Duration : 44 min 44 s
Bit rate : 95 b/s
Count of elements : 710
Stream size : 31.2 KiB (0%)
Language : German
Default : No
Forced : No

Text #7
ID : 9
Format : UTF-8
Codec ID : S_TEXT/UTF8
Codec ID/Info : UTF-8 Plain Text
Duration : 44 min 44 s
Bit rate : 155 b/s
Count of elements : 720
Stream size : 50.9 KiB (0%)
Language : Greek
Default : No
Forced : No

Text #8
ID : 10
Format : UTF-8
Codec ID : S_TEXT/UTF8
Codec ID/Info : UTF-8 Plain Text
Duration : 44 min 44 s
Bit rate : 71 b/s
Count of elements : 564
Stream size : 23.6 KiB (0%)
Title : Latin American
Language : Spanish
Default : No
Forced : No

Text #9
ID : 11
Format : UTF-8
Codec ID : S_TEXT/UTF8
Codec ID/Info : UTF-8 Plain Text
Duration : 44 min 44 s
Bit rate : 70 b/s
Count of elements : 546
Stream size : 22.9 KiB (0%)
Title : European
Language : Spanish
Default : No
Forced : No

Text #10
ID : 12
Format : UTF-8
Codec ID : S_TEXT/UTF8
Codec ID/Info : UTF-8 Plain Text
Duration : 44 min 44 s
Bit rate : 84 b/s
Count of elements : 624
Stream size : 27.7 KiB (0%)
Language : Finnish
Default : No
Forced : No

Text #11
ID : 13
Format : UTF-8
Codec ID : S_TEXT/UTF8
Codec ID/Info : UTF-8 Plain Text
Duration : 44 min 44 s
Bit rate : 97 b/s
Count of elements : 719
Stream size : 31.9 KiB (0%)
Language : French
Default : No
Forced : No

Text #12
ID : 14
Format : UTF-8
Codec ID : S_TEXT/UTF8
Codec ID/Info : UTF-8 Plain Text
Duration : 44 min 44 s
Bit rate : 133 b/s
Count of elements : 724
Stream size : 43.8 KiB (0%)
Language : Hebrew
Default : No
Forced : No

Text #13
ID : 15
Format : UTF-8
Codec ID : S_TEXT/UTF8
Codec ID/Info : UTF-8 Plain Text
Duration : 44 min 45 s
Bit rate : 93 b/s
Count of elements : 688
Stream size : 30.5 KiB (0%)
Language : Hungarian
Default : No
Forced : No

Text #14
ID : 16
Format : UTF-8
Codec ID : S_TEXT/UTF8
Codec ID/Info : UTF-8 Plain Text
Duration : 44 min 44 s
Bit rate : 96 b/s
Count of elements : 723
Stream size : 31.5 KiB (0%)
Language : Indonesian
Default : No
Forced : No

Text #15
ID : 17
Format : UTF-8
Codec ID : S_TEXT/UTF8
Codec ID/Info : UTF-8 Plain Text
Duration : 44 min 44 s
Bit rate : 94 b/s
Count of elements : 713
Stream size : 31.0 KiB (0%)
Language : Italian
Default : No
Forced : No

Text #16
ID : 18
Format : UTF-8
Codec ID : S_TEXT/UTF8
Codec ID/Info : UTF-8 Plain Text
Duration : 44 min 44 s
Bit rate : 97 b/s
Count of elements : 641
Stream size : 31.9 KiB (0%)
Language : Japanese
Default : No
Forced : No

Text #17
ID : 19
Format : UTF-8
Codec ID : S_TEXT/UTF8
Codec ID/Info : UTF-8 Plain Text
Duration : 44 min 44 s
Bit rate : 102 b/s
Count of elements : 729
Stream size : 33.7 KiB (0%)
Language : Korean
Default : No
Forced : No

Text #18
ID : 20
Format : UTF-8
Codec ID : S_TEXT/UTF8
Codec ID/Info : UTF-8 Plain Text
Duration : 44 min 44 s
Bit rate : 85 b/s
Count of elements : 660
Stream size : 27.9 KiB (0%)
Language : Norwegian Bokmal
Default : No
Forced : No

Text #19
ID : 21
Format : UTF-8
Codec ID : S_TEXT/UTF8
Codec ID/Info : UTF-8 Plain Text
Duration : 44 min 13 s
Bit rate : 84 b/s
Count of elements : 562
Stream size : 27.4 KiB (0%)
Language : Dutch
Default : No
Forced : No

Text #20
ID : 22
Format : UTF-8
Codec ID : S_TEXT/UTF8
Codec ID/Info : UTF-8 Plain Text
Duration : 44 min 44 s
Bit rate : 86 b/s
Count of elements : 721
Stream size : 28.4 KiB (0%)
Language : Polish
Default : No
Forced : No

Text #21
ID : 23
Format : UTF-8
Codec ID : S_TEXT/UTF8
Codec ID/Info : UTF-8 Plain Text
Duration : 44 min 44 s
Bit rate : 90 b/s
Count of elements : 724
Stream size : 29.8 KiB (0%)
Title : European
Language : Portuguese
Default : No
Forced : No

Text #22
ID : 24
Format : UTF-8
Codec ID : S_TEXT/UTF8
Codec ID/Info : UTF-8 Plain Text
Duration : 44 min 6 s
Bit rate : 90 b/s
Count of elements : 716
Stream size : 29.3 KiB (0%)
Title : Brazilian
Language : Portuguese
Default : No
Forced : No

Text #23
ID : 25
Format : UTF-8
Codec ID : S_TEXT/UTF8
Codec ID/Info : UTF-8 Plain Text
Duration : 44 min 6 s
Bit rate : 97 b/s
Count of elements : 697
Stream size : 31.4 KiB (0%)
Language : Romanian
Default : No
Forced : No

Text #24
ID : 26
Format : UTF-8
Codec ID : S_TEXT/UTF8
Codec ID/Info : UTF-8 Plain Text
Duration : 44 min 44 s
Bit rate : 141 b/s
Count of elements : 687
Stream size : 46.4 KiB (0%)
Language : Russian
Default : No
Forced : No

Text #25
ID : 27
Format : UTF-8
Codec ID : S_TEXT/UTF8
Codec ID/Info : UTF-8 Plain Text
Duration : 44 min 44 s
Bit rate : 80 b/s
Count of elements : 700
Stream size : 26.5 KiB (0%)
Language : Swedish
Default : No
Forced : No

Text #26
ID : 28
Format : UTF-8
Codec ID : S_TEXT/UTF8
Codec ID/Info : UTF-8 Plain Text
Duration : 44 min 44 s
Bit rate : 218 b/s
Count of elements : 724
Stream size : 71.5 KiB (0%)
Language : Thai
Default : No
Forced : No

Text #27
ID : 29
Format : UTF-8
Codec ID : S_TEXT/UTF8
Codec ID/Info : UTF-8 Plain Text
Duration : 44 min 45 s
Bit rate : 92 b/s
Count of elements : 674
Stream size : 30.2 KiB (0%)
Language : Turkish
Default : No
Forced : No

Text #28
ID : 30
Format : UTF-8
Codec ID : S_TEXT/UTF8
Codec ID/Info : UTF-8 Plain Text
Duration : 44 min 44 s
Bit rate : 121 b/s
Count of elements : 655
Stream size : 39.9 KiB (0%)
Language : Vietnamese
Default : No
Forced : No

Text #29
ID : 31
Format : UTF-8
Codec ID : S_TEXT/UTF8
Codec ID/Info : UTF-8 Plain Text
Duration : 44 min 44 s
Bit rate : 83 b/s
Count of elements : 722
Stream size : 27.2 KiB (0%)
Title : Simplified
Language : Chinese
Default : No
Forced : No

Text #30
ID : 32
Format : UTF-8
Codec ID : S_TEXT/UTF8
Codec ID/Info : UTF-8 Plain Text
Duration : 44 min 44 s
Bit rate : 76 b/s
Count of elements : 712
Stream size : 25.2 KiB (0%)
Title : Traditional
Language : Chinese
Default : No
Forced : No





The Business of Drugs S01E02


The Business of Drugs S01E02


The Business of Drugs S01E02


The Business of Drugs S01E02


The Business of Drugs S01E02