The Business of Drugs S01E06

TV Series
The Business of Drugs S01E06

The Business of Drugs S01E06
WEBRip | MKV | 1280x720 | English | H264 @ 2260 kbps | E-AC-3 @ 448 kbps | 40 min 10 s | 765 MiB
Subtitles: ภาษาไทย, Français, tiếng Việt, Español, Magyar, 日本語, עברית, 한국어, Русский, Ελληνικά, Nederlands, Dansk, Bahasa Indonesia, 中文, Suomi, Polski, Türkçe, English, Română, العربية, Deutsch, Svenska, Italiano, Português, Čeština
Genre: Crime, Documentary


To detail how drugs push people into risky — even deadly — behaviors, a former CIA analyst investigates the economics of six illicit substances.

76514110488f4035a88eac66b9596705.mkv (765.5 MB)



General
Unique ID : 332934630655420262922946786138123545190 (0xFA78E0A1E4628F1295E3C3EBE3062A66)
Complete name : ./76514110488f4035a88eac66b9596705.mkv
Format : Matroska
Format version : Version 4 / Version 2
File size : 765 MiB
Duration : 40 min 10 s
Overall bit rate mode : Variable
Overall bit rate : 2 664 kb/s
Encoded date : UTC 2020-07-14 21:07:27
Writing application : mkvmerge v45.0.0 ('Heaven in Pennies') 64-bit
Writing library : libebml v1.3.10 + libmatroska v1.5.2

Video
ID : 1
Format : AVC
Format/Info : Advanced Video Codec
Format profile : Main@L3.1
Format settings : CABAC / 3 Ref Frames
Format settings, CABAC : Yes
Format settings, RefFrames : 3 frames
Codec ID : V_MPEG4/ISO/AVC
Duration : 40 min 10 s
Bit rate mode : Variable
Bit rate : 2 260 kb/s
Maximum bit rate : 3 390 kb/s
Width : 1 280 pixels
Height : 720 pixels
Display aspect ratio : 16:9
Frame rate mode : Constant
Frame rate : 23.976 (24000/1001) FPS
Color space : YUV
Chroma subsampling : 4:2:0
Bit depth : 8 bits
Scan type : Progressive
Bits/(Pixel*Frame) : 0.102
Stream size : 635 MiB (83%)
Writing library : x264 core 148 r2717 0d2410d
Encoding settings : cabac=1 / ref=3 / deblock=1:0:0 / analyse=0x1:0x111 / me=umh / subme=10 / psy=1 / psy_rd=1.00:0.00 / mixed_ref=1 / me_range=24 / chroma_me=1 / trellis=2 / 8x8dct=0 / cqm=0 / deadzone=21,11 / fast_pskip=1 / chroma_qp_offset=-2 / threads=6 / lookahead_threads=1 / sliced_threads=0 / nr=0 / decimate=1 / interlaced=0 / bluray_compat=0 / stitchable=1 / constrained_intra=0 / bframes=2 / b_pyramid=0 / b_adapt=2 / b_bias=0 / direct=3 / weightb=1 / open_gop=0 / weightp=2 / keyint=250 / keyint_min=23 / scenecut=0 / intra_refresh=0 / rc_lookahead=48 / rc=2pass / mbtree=1 / bitrate=2260 / ratetol=1.0 / qcomp=0.50 / qpmin=6 / qpmax=51 / qpstep=4 / cplxblur=20.0 / qblur=0.5 / vbv_maxrate=3390 / vbv_bufsize=4520 / nal_hrd=vbr / filler=0 / ip_ratio=1.40 / aq=1:1.00
Default : Yes
Forced : No

Audio
ID : 2
Format : E-AC-3
Format/Info : Enhanced Audio Coding 3
Format settings, Endianness : Big
Codec ID : A_EAC3
Duration : 40 min 10 s
Bit rate mode : Constant
Bit rate : 448 kb/s
Channel(s) : 6 channels
Channel positions : Front: L C R, Side: L R, LFE
Sampling rate : 48.0 kHz
Frame rate : 187.500 FPS (256 SPF)
Compression mode : Lossy
Stream size : 129 MiB (17%)
Title : English
Language : English
Service kind : Complete Main
Default : Yes
Forced : No

Text #1
ID : 3
Format : UTF-8
Codec ID : S_TEXT/UTF8
Codec ID/Info : UTF-8 Plain Text
Duration : 3 min 30 s
Bit rate : 54 b/s
Count of elements : 37
Stream size : 1.39 KiB (0%)
Title : English [Forced]
Language : English
Default : No
Forced : Yes

Text #2
ID : 4
Format : UTF-8
Codec ID : S_TEXT/UTF8
Codec ID/Info : UTF-8 Plain Text
Duration : 38 min 29 s
Bit rate : 107 b/s
Count of elements : 688
Stream size : 30.2 KiB (0%)
Title : English [Full]
Language : English
Default : No
Forced : No

Text #3
ID : 5
Format : UTF-8
Codec ID : S_TEXT/UTF8
Codec ID/Info : UTF-8 Plain Text
Duration : 39 min 11 s
Bit rate : 89 b/s
Count of elements : 627
Stream size : 25.8 KiB (0%)
Title : Castilian [Full]
Language : Spanish
Default : No
Forced : No

Text #4
ID : 6
Format : UTF-8
Codec ID : S_TEXT/UTF8
Codec ID/Info : UTF-8 Plain Text
Duration : 39 min 11 s
Bit rate : 89 b/s
Count of elements : 661
Stream size : 25.7 KiB (0%)
Title : Spanish [Full]
Language : Spanish
Default : No
Forced : No

Text #5
ID : 7
Format : UTF-8
Codec ID : S_TEXT/UTF8
Codec ID/Info : UTF-8 Plain Text
Duration : 39 min 11 s
Bit rate : 102 b/s
Count of elements : 702
Stream size : 29.5 KiB (0%)
Title : French [Full]
Language : French
Default : No
Forced : No

Text #6
ID : 8
Format : UTF-8
Codec ID : S_TEXT/UTF8
Codec ID/Info : UTF-8 Plain Text
Duration : 39 min 11 s
Bit rate : 106 b/s
Count of elements : 679
Stream size : 30.5 KiB (0%)
Title : German [Full]
Language : German
Default : No
Forced : No

Text #7
ID : 9
Format : UTF-8
Codec ID : S_TEXT/UTF8
Codec ID/Info : UTF-8 Plain Text
Duration : 39 min 11 s
Bit rate : 97 b/s
Count of elements : 676
Stream size : 27.9 KiB (0%)
Title : Italian [Full]
Language : Italian
Default : No
Forced : No

Text #8
ID : 10
Format : UTF-8
Codec ID : S_TEXT/UTF8
Codec ID/Info : UTF-8 Plain Text
Duration : 39 min 12 s
Bit rate : 99 b/s
Count of elements : 698
Stream size : 28.5 KiB (0%)
Title : Portuguese [Full]
Language : Portuguese
Default : No
Forced : No

Text #9
ID : 11
Format : UTF-8
Codec ID : S_TEXT/UTF8
Codec ID/Info : UTF-8 Plain Text
Duration : 39 min 11 s
Bit rate : 96 b/s
Count of elements : 648
Stream size : 27.7 KiB (0%)
Title : Brazilian Portuguese [Full]
Language : Portuguese
Default : No
Forced : No

Text #10
ID : 12
Format : UTF-8
Codec ID : S_TEXT/UTF8
Codec ID/Info : UTF-8 Plain Text
Duration : 39 min 11 s
Bit rate : 96 b/s
Count of elements : 702
Stream size : 27.6 KiB (0%)
Title : Polish [Full]
Language : Polish
Default : No
Forced : No

Text #11
ID : 13
Format : UTF-8
Codec ID : S_TEXT/UTF8
Codec ID/Info : UTF-8 Plain Text
Duration : 39 min 12 s
Bit rate : 100 b/s
Count of elements : 637
Stream size : 28.8 KiB (0%)
Title : Turkish [Full]
Language : Turkish
Default : No
Forced : No

Text #12
ID : 14
Format : UTF-8
Codec ID : S_TEXT/UTF8
Codec ID/Info : UTF-8 Plain Text
Duration : 39 min 11 s
Bit rate : 91 b/s
Count of elements : 695
Stream size : 26.2 KiB (0%)
Title : Swedish [Full]
Language : Swedish
Default : No
Forced : No

Text #13
ID : 15
Format : UTF-8
Codec ID : S_TEXT/UTF8
Codec ID/Info : UTF-8 Plain Text
Duration : 39 min 12 s
Bit rate : 91 b/s
Count of elements : 703
Stream size : 26.2 KiB (0%)
Title : Danish [Full]
Language : Danish
Default : No
Forced : No

Text #14
ID : 16
Format : UTF-8
Codec ID : S_TEXT/UTF8
Codec ID/Info : UTF-8 Plain Text
Duration : 39 min 11 s
Bit rate : 93 b/s
Count of elements : 570
Stream size : 26.9 KiB (0%)
Title : Finnish [Full]
Language : Finnish
Default : No
Forced : No

Text #15
ID : 17
Format : UTF-8
Codec ID : S_TEXT/UTF8
Codec ID/Info : UTF-8 Plain Text
Duration : 38 min 33 s
Bit rate : 95 b/s
Count of elements : 557
Stream size : 26.9 KiB (0%)
Title : Dutch [Full]
Language : Dutch
Default : No
Forced : No

Text #16
ID : 18
Format : UTF-8
Codec ID : S_TEXT/UTF8
Codec ID/Info : UTF-8 Plain Text
Duration : 39 min 11 s
Bit rate : 96 b/s
Count of elements : 642
Stream size : 27.6 KiB (0%)
Title : Norwegian [Full]
Language : Norwegian
Default : No
Forced : No

Text #17
ID : 19
Format : UTF-8
Codec ID : S_TEXT/UTF8
Codec ID/Info : UTF-8 Plain Text
Duration : 39 min 11 s
Bit rate : 159 b/s
Count of elements : 688
Stream size : 45.9 KiB (0%)
Title : Russian [Full]
Language : Russian
Default : No
Forced : No

Text #18
ID : 20
Format : UTF-8
Codec ID : S_TEXT/UTF8
Codec ID/Info : UTF-8 Plain Text
Duration : 39 min 12 s
Bit rate : 104 b/s
Count of elements : 671
Stream size : 29.9 KiB (0%)
Title : Hungarian [Full]
Language : Hungarian
Default : No
Forced : No

Text #19
ID : 21
Format : UTF-8
Codec ID : S_TEXT/UTF8
Codec ID/Info : UTF-8 Plain Text
Duration : 39 min 12 s
Bit rate : 166 b/s
Count of elements : 685
Stream size : 47.9 KiB (0%)
Title : Greek [Full]
Language : Greek
Default : No
Forced : No

Text #20
ID : 22
Format : UTF-8
Codec ID : S_TEXT/UTF8
Codec ID/Info : UTF-8 Plain Text
Duration : 39 min 11 s
Bit rate : 149 b/s
Count of elements : 684
Stream size : 43.0 KiB (0%)
Title : Hebrew [Full]
Language : Hebrew
Default : No
Forced : No

Text #21
ID : 23
Format : UTF-8
Codec ID : S_TEXT/UTF8
Codec ID/Info : UTF-8 Plain Text
Duration : 38 min 26 s
Bit rate : 168 b/s
Count of elements : 686
Stream size : 47.3 KiB (0%)
Title : Arabic [Full]
Language : Arabic
Default : No
Forced : No

Text #22
ID : 24
Format : UTF-8
Codec ID : S_TEXT/UTF8
Codec ID/Info : UTF-8 Plain Text
Duration : 38 min 26 s
Bit rate : 108 b/s
Count of elements : 639
Stream size : 30.5 KiB (0%)
Title : Romanian [Full]
Language : Romanian
Default : No
Forced : No

Text #23
ID : 25
Format : UTF-8
Codec ID : S_TEXT/UTF8
Codec ID/Info : UTF-8 Plain Text
Duration : 39 min 13 s
Bit rate : 103 b/s
Count of elements : 679
Stream size : 29.6 KiB (0%)
Title : Czech [Full]
Language : Czech
Default : No
Forced : No

Text #24
ID : 26
Format : UTF-8
Codec ID : S_TEXT/UTF8
Codec ID/Info : UTF-8 Plain Text
Duration : 39 min 11 s
Bit rate : 104 b/s
Count of elements : 700
Stream size : 30.0 KiB (0%)
Title : Indonesian [Full]
Language : Indonesian
Default : No
Forced : No

Text #25
ID : 27
Format : UTF-8
Codec ID : S_TEXT/UTF8
Codec ID/Info : UTF-8 Plain Text
Duration : 39 min 11 s
Bit rate : 130 b/s
Count of elements : 641
Stream size : 37.6 KiB (0%)
Title : Vietnamese [Full]
Language : Vietnamese
Default : No
Forced : No

Text #26
ID : 28
Format : UTF-8
Codec ID : S_TEXT/UTF8
Codec ID/Info : UTF-8 Plain Text
Duration : 39 min 11 s
Bit rate : 241 b/s
Count of elements : 715
Stream size : 69.3 KiB (0%)
Title : Thai [Full]
Language : Thai
Default : No
Forced : No

Text #27
ID : 29
Format : UTF-8
Codec ID : S_TEXT/UTF8
Codec ID/Info : UTF-8 Plain Text
Duration : 39 min 11 s
Bit rate : 115 b/s
Count of elements : 711
Stream size : 33.2 KiB (0%)
Title : Korean [Full]
Language : Korean
Default : No
Forced : No

Text #28
ID : 30
Format : UTF-8
Codec ID : S_TEXT/UTF8
Codec ID/Info : UTF-8 Plain Text
Duration : 39 min 11 s
Bit rate : 93 b/s
Count of elements : 702
Stream size : 26.9 KiB (0%)
Title : Chinese (Simplified) [Full]
Language : Chinese
Default : No
Forced : No

Text #29
ID : 31
Format : UTF-8
Codec ID : S_TEXT/UTF8
Codec ID/Info : UTF-8 Plain Text
Duration : 39 min 11 s
Bit rate : 85 b/s
Count of elements : 689
Stream size : 24.7 KiB (0%)
Title : Chinese (Traditional) [Full]
Language : Chinese
Default : No
Forced : No

Text #30
ID : 32
Format : UTF-8
Codec ID : S_TEXT/UTF8
Codec ID/Info : UTF-8 Plain Text
Duration : 39 min 11 s
Bit rate : 112 b/s
Count of elements : 624
Stream size : 32.2 KiB (0%)
Title : Japanese [Full]
Language : Japanese
Default : No
Forced : No





The Business of Drugs S01E06


The Business of Drugs S01E06


The Business of Drugs S01E06


The Business of Drugs S01E06


The Business of Drugs S01E06