The Con S01E01

TV Series
The Con S01E01

The Con S01E01
WEBRip | MKV | 992x558 | English | H264 @ 1040 kbps | AAC @ 54 kbps | 41 min 20 s | 324 MiB
Subtitles: English
Genre: Documentary

An in-depth investigation into the 2008 financial crisis nine years in the making, Who did it, why it happened and how our country went from “of, for and by the people,” to “of, for and by the corporation.”

a2814a33a5264c01be0973cbf13e8438.mkv (323.9 MB)



General
Unique ID : 93544353114480404668332211216486621861 (0x465FFCB138209F90506EE022EA85E2A5)
Complete name : ./a2814a33a5264c01be0973cbf13e8438.mkv
Format : Matroska
Format version : Version 4 / Version 2
File size : 324 MiB
Duration : 41 min 20 s
Overall bit rate : 1 096 kb/s
Encoded date : UTC 2020-10-15 17:34:50
Writing application : mkvmerge v47.0.0 ('Black Flag') 64-bit
Writing library : libebml v1.3.10 + libmatroska v1.5.2

Video
ID : 2
Format : AVC
Format/Info : Advanced Video Codec
Format profile : Main@L3.1
Format settings : CABAC / 2 Ref Frames
Format settings, CABAC : Yes
Format settings, RefFrames : 2 frames
Codec ID : V_MPEG4/ISO/AVC
Duration : 41 min 19 s
Bit rate : 1 040 kb/s
Width : 992 pixels
Height : 558 pixels
Display aspect ratio : 16:9
Frame rate mode : Constant
Frame rate : 29.970 FPS
Color space : YUV
Chroma subsampling : 4:2:0
Bit depth : 8 bits
Scan type : Progressive
Bits/(Pixel*Frame) : 0.063
Stream size : 307 MiB (95%)
Writing library : x264 core 148 r2579M 73ae2d1
Encoding settings : cabac=1 / ref=2 / deblock=1:0:0 / analyse=0x1:0x111 / me=hex / subme=2 / psy=1 / psy_rd=1.00:0.00 / mixed_ref=0 / me_range=16 / chroma_me=1 / trellis=0 / 8x8dct=0 / cqm=0 / deadzone=21,11 / fast_pskip=1 / chroma_qp_offset=0 / threads=4 / lookahead_threads=1 / sliced_threads=0 / nr=250 / decimate=1 / interlaced=0 / bluray_compat=0 / stitchable=1 / constrained_intra=0 / bframes=0 / weightp=1 / keyint=250 / keyint_min=25 / scenecut=40 / intra_refresh=0 / rc_lookahead=10 / rc=2pass / mbtree=1 / bitrate=1040 / ratetol=1.0 / qcomp=0.60 / qpmin=5 / qpmax=69 / qpstep=4 / cplxblur=20.0 / qblur=0.5 / vbv_maxrate=2080 / vbv_bufsize=1040 / nal_hrd=none / filler=0 / ip_ratio=1.40 / aq=1:1.00
Language : English
Default : Yes
Forced : No
Color range : Limited
Color primaries : BT.709
Transfer characteristics : BT.709
Matrix coefficients : BT.709

Audio
ID : 1
Format : AAC
Format/Info : Advanced Audio Codec
Format profile : HE-AAC / LC
Format settings : Implicit
Codec ID : A_AAC-2
Duration : 41 min 20 s
Bit rate : 54.6 kb/s
Channel(s) : 1 channel
Channel positions : Front: C
Sampling rate : 48.0 kHz / 24.0 kHz
Frame rate : 23.438 FPS (1024 SPF)
Compression mode : Lossy
Delay relative to video : -44 ms
Stream size : 16.1 MiB (5%)
Language : English
Default : Yes
Forced : No

Text
ID : 3
Format : UTF-8
Codec ID : S_TEXT/UTF8
Codec ID/Info : UTF-8 Plain Text
Duration : 41 min 16 s
Bit rate : 107 b/s
Count of elements : 862
Stream size : 32.6 KiB (0%)
Language : English
Default : No
Forced : No





The Con S01E01


The Con S01E01


The Con S01E01


The Con S01E01


The Con S01E01