The Epic Tales of Captain Underpants S01E05

TV Series
The Epic Tales of Captain Underpants S01E05

The Epic Tales of Captain Underpants S01E05
WEBRip | MKV | 1920x1080 | English | H264 @ 7150 kbps | E-AC-3 @ 640 kbps | 24 min 8 s | 1.27 GiB
Subtitles: ภาษาไทย, العربية, 中文, Français, Deutsch, Suomi, Español, Polski, Italiano, Ελληνικά, Türkçe, Nederlands, Svenska, Dansk, English, Bahasa Indonesia, Română, 한국어, 日本語, Português, עברית
Genre: Animasi, Komedi


Fourth-grade friends George and Harold have a shared love of pranks and comic books – and turning their principal into an undies-wearing superhero.

d187ab37ff7db3fc48021c421cadcbe9.mkv (1.3 GB)



General
Unique ID : 259347956417768784333636567822652637187 (0xC31C997AABC9E873FF0FD7584FBB8003)
Complete name : ./d187ab37ff7db3fc48021c421cadcbe9.mkv
Format : Matroska
Format version : Version 4 / Version 2
File size : 1.27 GiB
Duration : 24 min 8 s
Overall bit rate mode : Variable
Overall bit rate : 7 534 kb/s
Encoded date : UTC 2020-07-10 09:04:14
Writing application : mkvmerge v45.0.0 ('Heaven in Pennies') 64-bit
Writing library : libebml v1.3.10 + libmatroska v1.5.2

Video
ID : 1
Format : AVC
Format/Info : Advanced Video Codec
Format profile : Main@L4
Format settings : CABAC / 3 Ref Frames
Format settings, CABAC : Yes
Format settings, RefFrames : 3 frames
Codec ID : V_MPEG4/ISO/AVC
Duration : 24 min 8 s
Bit rate mode : Variable
Bit rate : 7 150 kb/s
Maximum bit rate : 10.7 Mb/s
Width : 1 920 pixels
Height : 1 080 pixels
Display aspect ratio : 16:9
Frame rate mode : Constant
Frame rate : 23.976 (24000/1001) FPS
Color space : YUV
Chroma subsampling : 4:2:0
Bit depth : 8 bits
Scan type : Progressive
Bits/(Pixel*Frame) : 0.144
Stream size : 1.16 GiB (91%)
Writing library : x264 core 148 r2721 6d200cf
Encoding settings : cabac=1 / ref=3 / deblock=1:0:0 / analyse=0x1:0x111 / me=umh / subme=10 / psy=1 / psy_rd=1.00:0.00 / mixed_ref=1 / me_range=24 / chroma_me=1 / trellis=2 / 8x8dct=0 / cqm=0 / deadzone=21,11 / fast_pskip=1 / chroma_qp_offset=-2 / threads=8 / lookahead_threads=1 / sliced_threads=0 / nr=0 / decimate=1 / interlaced=0 / bluray_compat=0 / stitchable=1 / constrained_intra=0 / bframes=2 / b_pyramid=0 / b_adapt=2 / b_bias=0 / direct=3 / weightb=1 / open_gop=0 / weightp=2 / keyint=250 / keyint_min=23 / scenecut=0 / intra_refresh=0 / rc_lookahead=48 / rc=2pass / mbtree=1 / bitrate=7150 / ratetol=1.0 / qcomp=0.50 / qpmin=6 / qpmax=51 / qpstep=4 / cplxblur=20.0 / qblur=0.5 / vbv_maxrate=10725 / vbv_bufsize=14300 / nal_hrd=vbr / filler=0 / ip_ratio=1.40 / aq=1:1.00
Default : Yes
Forced : No

Audio
ID : 2
Format : E-AC-3
Format/Info : Enhanced Audio Coding 3
Format settings, Endianness : Big
Codec ID : A_EAC3
Duration : 24 min 8 s
Bit rate mode : Constant
Bit rate : 640 kb/s
Channel(s) : 6 channels
Channel positions : Front: L C R, Side: L R, LFE
Sampling rate : 48.0 kHz
Frame rate : 187.500 FPS (256 SPF)
Compression mode : Lossy
Stream size : 111 MiB (8%)
Title : English
Language : English
Service kind : Complete Main
Default : Yes
Forced : No

Text #1
ID : 3
Format : UTF-8
Codec ID : S_TEXT/UTF8
Codec ID/Info : UTF-8 Plain Text
Duration : 22 min 35 s
Bit rate : 130 b/s
Count of elements : 542
Stream size : 21.6 KiB (0%)
Title : English [Full]
Language : English
Default : No
Forced : No

Text #2
ID : 4
Format : UTF-8
Codec ID : S_TEXT/UTF8
Codec ID/Info : UTF-8 Plain Text
Duration : 23 min 6 s
Bit rate : 112 b/s
Count of elements : 478
Stream size : 19.0 KiB (0%)
Title : Castilian [Full]
Language : Spanish
Default : No
Forced : No

Text #3
ID : 5
Format : UTF-8
Codec ID : S_TEXT/UTF8
Codec ID/Info : UTF-8 Plain Text
Duration : 23 min 6 s
Bit rate : 109 b/s
Count of elements : 469
Stream size : 18.5 KiB (0%)
Title : Spanish [Full]
Language : Spanish
Default : No
Forced : No

Text #4
ID : 6
Format : UTF-8
Codec ID : S_TEXT/UTF8
Codec ID/Info : UTF-8 Plain Text
Duration : 23 min 6 s
Bit rate : 98 b/s
Count of elements : 440
Stream size : 16.7 KiB (0%)
Title : French [Full]
Language : French
Default : No
Forced : No

Text #5
ID : 7
Format : UTF-8
Codec ID : S_TEXT/UTF8
Codec ID/Info : UTF-8 Plain Text
Duration : 23 min 6 s
Bit rate : 85 b/s
Count of elements : 427
Stream size : 14.5 KiB (0%)
Title : German [Full]
Language : German
Default : No
Forced : No

Text #6
ID : 8
Format : UTF-8
Codec ID : S_TEXT/UTF8
Codec ID/Info : UTF-8 Plain Text
Duration : 23 min 6 s
Bit rate : 100 b/s
Count of elements : 438
Stream size : 16.9 KiB (0%)
Title : Italian [Full]
Language : Italian
Default : No
Forced : No

Text #7
ID : 9
Format : UTF-8
Codec ID : S_TEXT/UTF8
Codec ID/Info : UTF-8 Plain Text
Duration : 23 min 6 s
Bit rate : 95 b/s
Count of elements : 410
Stream size : 16.2 KiB (0%)
Title : Portuguese [Full]
Language : Portuguese
Default : No
Forced : No

Text #8
ID : 10
Format : UTF-8
Codec ID : S_TEXT/UTF8
Codec ID/Info : UTF-8 Plain Text
Duration : 23 min 6 s
Bit rate : 94 b/s
Count of elements : 408
Stream size : 15.9 KiB (0%)
Title : Brazilian Portuguese [Full]
Language : Portuguese
Default : No
Forced : No

Text #9
ID : 11
Format : UTF-8
Codec ID : S_TEXT/UTF8
Codec ID/Info : UTF-8 Plain Text
Duration : 23 min 6 s
Bit rate : 99 b/s
Count of elements : 448
Stream size : 16.8 KiB (0%)
Title : Polish [Full]
Language : Polish
Default : No
Forced : No

Text #10
ID : 12
Format : UTF-8
Codec ID : S_TEXT/UTF8
Codec ID/Info : UTF-8 Plain Text
Duration : 23 min 6 s
Bit rate : 105 b/s
Count of elements : 446
Stream size : 17.9 KiB (0%)
Title : Turkish [Full]
Language : Turkish
Default : No
Forced : No

Text #11
ID : 13
Format : UTF-8
Codec ID : S_TEXT/UTF8
Codec ID/Info : UTF-8 Plain Text
Duration : 23 min 6 s
Bit rate : 113 b/s
Count of elements : 480
Stream size : 19.2 KiB (0%)
Title : Swedish [Full]
Language : Swedish
Default : No
Forced : No

Text #12
ID : 14
Format : UTF-8
Codec ID : S_TEXT/UTF8
Codec ID/Info : UTF-8 Plain Text
Duration : 23 min 6 s
Bit rate : 91 b/s
Count of elements : 374
Stream size : 15.4 KiB (0%)
Title : Danish [Full]
Language : Danish
Default : No
Forced : No

Text #13
ID : 15
Format : UTF-8
Codec ID : S_TEXT/UTF8
Codec ID/Info : UTF-8 Plain Text
Duration : 23 min 6 s
Bit rate : 87 b/s
Count of elements : 474
Stream size : 14.7 KiB (0%)
Title : Finnish [Full]
Language : Finnish
Default : No
Forced : No

Text #14
ID : 16
Format : UTF-8
Codec ID : S_TEXT/UTF8
Codec ID/Info : UTF-8 Plain Text
Duration : 23 min 6 s
Bit rate : 76 b/s
Count of elements : 358
Stream size : 12.9 KiB (0%)
Title : Dutch [Full]
Language : Dutch
Default : No
Forced : No

Text #15
ID : 17
Format : UTF-8
Codec ID : S_TEXT/UTF8
Codec ID/Info : UTF-8 Plain Text
Duration : 23 min 6 s
Bit rate : 93 b/s
Count of elements : 397
Stream size : 15.8 KiB (0%)
Title : Norwegian [Full]
Language : Norwegian
Default : No
Forced : No

Text #16
ID : 18
Format : UTF-8
Codec ID : S_TEXT/UTF8
Codec ID/Info : UTF-8 Plain Text
Duration : 23 min 6 s
Bit rate : 142 b/s
Count of elements : 463
Stream size : 24.1 KiB (0%)
Title : Greek [Full]
Language : Greek
Default : No
Forced : No

Text #17
ID : 19
Format : UTF-8
Codec ID : S_TEXT/UTF8
Codec ID/Info : UTF-8 Plain Text
Duration : 23 min 6 s
Bit rate : 139 b/s
Count of elements : 480
Stream size : 23.7 KiB (0%)
Title : Hebrew [Full]
Language : Hebrew
Default : No
Forced : No

Text #18
ID : 20
Format : UTF-8
Codec ID : S_TEXT/UTF8
Codec ID/Info : UTF-8 Plain Text
Duration : 23 min 6 s
Bit rate : 177 b/s
Count of elements : 481
Stream size : 30.0 KiB (0%)
Title : Arabic [Full]
Language : Arabic
Default : No
Forced : No

Text #19
ID : 21
Format : UTF-8
Codec ID : S_TEXT/UTF8
Codec ID/Info : UTF-8 Plain Text
Duration : 22 min 36 s
Bit rate : 132 b/s
Count of elements : 435
Stream size : 21.9 KiB (0%)
Title : Romanian [Full]
Language : Romanian
Default : No
Forced : No

Text #20
ID : 22
Format : UTF-8
Codec ID : S_TEXT/UTF8
Codec ID/Info : UTF-8 Plain Text
Duration : 23 min 6 s
Bit rate : 78 b/s
Count of elements : 482
Stream size : 13.3 KiB (0%)
Title : Indonesian [Full]
Language : Indonesian
Default : No
Forced : No

Text #21
ID : 23
Format : UTF-8
Codec ID : S_TEXT/UTF8
Codec ID/Info : UTF-8 Plain Text
Duration : 22 min 36 s
Bit rate : 257 b/s
Count of elements : 480
Stream size : 42.6 KiB (0%)
Title : Thai [Full]
Language : Thai
Default : No
Forced : No

Text #22
ID : 24
Format : UTF-8
Codec ID : S_TEXT/UTF8
Codec ID/Info : UTF-8 Plain Text
Duration : 22 min 36 s
Bit rate : 136 b/s
Count of elements : 480
Stream size : 22.5 KiB (0%)
Title : Korean [Full]
Language : Korean
Default : No
Forced : No

Text #23
ID : 25
Format : UTF-8
Codec ID : S_TEXT/UTF8
Codec ID/Info : UTF-8 Plain Text
Duration : 22 min 36 s
Bit rate : 106 b/s
Count of elements : 480
Stream size : 17.6 KiB (0%)
Title : Chinese (Simplified) [Full]
Language : Chinese
Default : No
Forced : No

Text #24
ID : 26
Format : UTF-8
Codec ID : S_TEXT/UTF8
Codec ID/Info : UTF-8 Plain Text
Duration : 22 min 36 s
Bit rate : 111 b/s
Count of elements : 480
Stream size : 18.4 KiB (0%)
Title : Chinese (Traditional) [Full]
Language : Chinese
Default : No
Forced : No

Text #25
ID : 27
Format : UTF-8
Codec ID : S_TEXT/UTF8
Codec ID/Info : UTF-8 Plain Text
Duration : 22 min 36 s
Bit rate : 135 b/s
Count of elements : 514
Stream size : 22.5 KiB (0%)
Title : Japanese [Full]
Language : Japanese
Default : No
Forced : No





The Epic Tales of Captain Underpants S01E05


The Epic Tales of Captain Underpants S01E05


The Epic Tales of Captain Underpants S01E05


The Epic Tales of Captain Underpants S01E05


The Epic Tales of Captain Underpants S01E05