The Great S01E01

TV Series
The Great S01E01

The Great S01E01
WEB-DL | MKV | 3840x2160 | English | H265 @ 15339 kbps | E-AC-3 @ 256 kbps | 52 min 13 s | 5.69 GiB
Subtitles: Español, English
Genre: Comedy, Drama


A genre-bending, anti-historical ride through 18th century Russia following the rise of Catherine the Nothing to Catherine the Great and her explosive relationship with husband Peter, the emperor of Russia.

4eeeda00cc4d120a989fd76450bf16cd.mkv (5.7 GB)



General
Unique ID : 332831079901011043192038072251825595570 (0xFA64EF2F9F54032A9C74D78F08BD24B2)
Complete name : ./4eeeda00cc4d120a989fd76450bf16cd.mkv
Format : Matroska
Format version : Version 4 / Version 2
File size : 5.69 GiB
Duration : 52 min 13 s
Overall bit rate : 15.6 Mb/s
Encoded date : UTC 2020-05-15 14:34:34
Writing application : mkvmerge v44.0.0 ('Domino') 64-bit
Writing library : libebml v1.3.10 + libmatroska v1.5.2

Video
ID : 1
Format : HEVC
Format/Info : High Efficiency Video Coding
Format profile : Main 10@L5.1@Main
Codec ID : V_MPEGH/ISO/HEVC
Duration : 52 min 13 s
Bit rate : 15.3 Mb/s
Width : 3 840 pixels
Height : 2 160 pixels
Display aspect ratio : 16:9
Frame rate mode : Constant
Frame rate : 23.976 (24000/1001) FPS
Color space : YUV
Chroma subsampling : 4:2:0
Bit depth : 10 bits
Bits/(Pixel*Frame) : 0.077
Stream size : 5.60 GiB (98%)
Default : Yes
Forced : No

Audio
ID : 2
Format : E-AC-3
Format/Info : Enhanced Audio Coding 3
Format settings, Endianness : Big
Codec ID : A_EAC3
Duration : 52 min 13 s
Bit rate mode : Constant
Bit rate : 256 kb/s
Channel(s) : 6 channels
Channel positions : Front: L C R, Side: L R, LFE
Sampling rate : 48.0 kHz
Frame rate : 187.500 FPS (256 SPF)
Compression mode : Lossy
Stream size : 95.6 MiB (2%)
Language : English
Service kind : Complete Main
Default : Yes
Forced : No

Text #1
ID : 3
Format : UTF-8
Codec ID : S_TEXT/UTF8
Codec ID/Info : UTF-8 Plain Text
Duration : 51 min 41 s
Bit rate : 76 b/s
Count of elements : 895
Stream size : 28.9 KiB (0%)
Language : English
Default : No
Forced : No

Text #2
ID : 4
Format : UTF-8
Codec ID : S_TEXT/UTF8
Codec ID/Info : UTF-8 Plain Text
Duration : 50 min 5 s
Bit rate : 73 b/s
Count of elements : 889
Stream size : 27.0 KiB (0%)
Language : Spanish
Default : No
Forced : No





The Great S01E01


The Great S01E01


The Great S01E01


The Great S01E01


The Great S01E01