The Great S01E02

TV Series
The Great S01E02

The Great S01E02
WEBRip | MKV | 3840x2160 | English | H265 @ 15402 kbps | E-AC-3 @ 256 kbps | 55 min 23 s | 6.06 GiB
Subtitles: Español, English
Genre: Comedy, Drama


A genre-bending, anti-historical ride through 18th century Russia following the rise of Catherine the Nothing to Catherine the Great and her explosive relationship with husband Peter, the emperor of Russia.

8dee8c4dc48e461f8cdfc30a93f00b36.mkv (6.1 GB)



General
Unique ID : 67590086058817109512453185965698399543 (0x32D960878EA4315A0881DDE389C53D37)
Complete name : ./8dee8c4dc48e461f8cdfc30a93f00b36.mkv
Format : Matroska
Format version : Version 4 / Version 2
File size : 6.06 GiB
Duration : 55 min 23 s
Overall bit rate : 15.7 Mb/s
Encoded date : UTC 2020-05-15 12:19:35
Writing application : mkvmerge v44.0.0 ('Domino') 64-bit
Writing library : libebml v1.3.10 + libmatroska v1.5.2

Video
ID : 1
Format : HEVC
Format/Info : High Efficiency Video Coding
Format profile : Main 10@L5.1@Main
Codec ID : V_MPEGH/ISO/HEVC
Duration : 55 min 22 s
Bit rate : 15.4 Mb/s
Width : 3 840 pixels
Height : 2 160 pixels
Display aspect ratio : 16:9
Frame rate mode : Constant
Frame rate : 23.976 (24000/1001) FPS
Color space : YUV
Chroma subsampling : 4:2:0
Bit depth : 10 bits
Bits/(Pixel*Frame) : 0.077
Stream size : 5.96 GiB (98%)
Language : English
Default : Yes
Forced : No

Audio
ID : 2
Format : E-AC-3
Format/Info : Enhanced Audio Coding 3
Format settings, Endianness : Big
Codec ID : A_EAC3
Duration : 55 min 23 s
Bit rate mode : Constant
Bit rate : 256 kb/s
Channel(s) : 6 channels
Channel positions : Front: L C R, Side: L R, LFE
Sampling rate : 48.0 kHz
Frame rate : 187.500 FPS (256 SPF)
Compression mode : Lossy
Stream size : 101 MiB (2%)
Language : English
Service kind : Complete Main
Default : Yes
Forced : No

Text #1
ID : 3
Format : UTF-8
Codec ID : S_TEXT/UTF8
Codec ID/Info : UTF-8 Plain Text
Duration : 54 min 55 s
Bit rate : 85 b/s
Count of elements : 1016
Stream size : 34.2 KiB (0%)
Title : English
Language : English
Default : No
Forced : No

Text #2
ID : 4
Format : UTF-8
Codec ID : S_TEXT/UTF8
Codec ID/Info : UTF-8 Plain Text
Duration : 53 min 22 s
Bit rate : 82 b/s
Count of elements : 922
Stream size : 32.4 KiB (0%)
Title : Spanish; Castilian
Language : Spanish
Default : No
Forced : No





The Great S01E02


The Great S01E02


The Great S01E02


The Great S01E02


The Great S01E02