The Great S01E03

TV Series
The Great S01E03

The Great S01E03
WEB-DL | MKV | 1920x1080 | English | H264 @ 4512 kbps | E-AC-3 @ 256 kbps | 51 min 3 s | 1.70 GiB
Subtitles: Español, English
Genre: Comedy, Drama


A genre-bending, anti-historical ride through 18th century Russia following the rise of Catherine the Nothing to Catherine the Great and her explosive relationship with husband Peter, the emperor of Russia.

07f73dcdac075a853eac09852123a3fb.mkv (1.7 GB)



General
Unique ID : 109742926970280843066168634094468740365 (0x528FB80B61CF16DD5E30A984AA7C350D)
Complete name : ./07f73dcdac075a853eac09852123a3fb.mkv
Format : Matroska
Format version : Version 4 / Version 2
File size : 1.70 GiB
Duration : 51 min 3 s
Overall bit rate : 4 771 kb/s
Encoded date : UTC 2020-05-15 04:13:52
Writing application : mkvmerge v46.0.0 ('No Deeper Escape') 64-bit
Writing library : libebml v1.3.10 + libmatroska v1.5.2

Video
ID : 1
Format : AVC
Format/Info : Advanced Video Codec
Format profile : High@L4
Format settings : CABAC / 4 Ref Frames
Format settings, CABAC : Yes
Format settings, RefFrames : 4 frames
Codec ID : V_MPEG4/ISO/AVC
Duration : 51 min 3 s
Bit rate : 4 513 kb/s
Width : 1 920 pixels
Height : 1 080 pixels
Display aspect ratio : 16:9
Frame rate mode : Constant
Frame rate : 23.976 (24000/1001) FPS
Color space : YUV
Chroma subsampling : 4:2:0
Bit depth : 8 bits
Scan type : Progressive
Bits/(Pixel*Frame) : 0.091
Stream size : 1.61 GiB (95%)
Default : Yes
Forced : No

Audio
ID : 2
Format : E-AC-3
Format/Info : Enhanced Audio Coding 3
Format settings, Endianness : Big
Codec ID : A_EAC3
Duration : 51 min 3 s
Bit rate mode : Constant
Bit rate : 256 kb/s
Channel(s) : 6 channels
Channel positions : Front: L C R, Side: L R, LFE
Sampling rate : 48.0 kHz
Frame rate : 187.500 FPS (256 SPF)
Compression mode : Lossy
Stream size : 93.5 MiB (5%)
Language : English
Service kind : Complete Main
Default : Yes
Forced : No

Text #1
ID : 3
Format : UTF-8
Codec ID : S_TEXT/UTF8
Codec ID/Info : UTF-8 Plain Text
Duration : 50 min 56 s
Bit rate : 78 b/s
Count of elements : 929
Stream size : 29.5 KiB (0%)
Language : English
Default : No
Forced : No

Text #2
ID : 4
Format : UTF-8
Codec ID : S_TEXT/UTF8
Codec ID/Info : UTF-8 Plain Text
Duration : 49 min 3 s
Bit rate : 77 b/s
Count of elements : 854
Stream size : 28.0 KiB (0%)
Language : Spanish
Default : No
Forced : No





The Great S01E03


The Great S01E03


The Great S01E03


The Great S01E03


The Great S01E03