The Great S01E04

TV Series
The Great S01E04

The Great S01E04
WEBRip | MKV | 3840x2160 | English | H265 @ 11522 kbps | E-AC-3 @ 256 kbps | 51 min 49 s | 4.26 GiB
Subtitles: Español, English
Genre: Comedy, Drama


A genre-bending, anti-historical ride through 18th century Russia following the rise of Catherine the Nothing to Catherine the Great and her explosive relationship with husband Peter, the emperor of Russia.

b39819aa19ccb1f994aecfacb07ded0c.mkv (4.3 GB)



General
Unique ID : 88919715528624555276911990246993844765 (0x42E550748AE0A06E2DF5BC7403605A1D)
Complete name : ./b39819aa19ccb1f994aecfacb07ded0c.mkv
Format : Matroska
Format version : Version 4 / Version 2
File size : 4.26 GiB
Duration : 51 min 49 s
Overall bit rate : 11.8 Mb/s
Encoded date : UTC 2020-05-15 04:53:34
Writing application : mkvmerge v46.0.0 ('No Deeper Escape') 64-bit
Writing library : libebml v1.3.10 + libmatroska v1.5.2

Video
ID : 1
Format : HEVC
Format/Info : High Efficiency Video Coding
Format profile : Main 10@L5@Main
Codec ID : V_MPEGH/ISO/HEVC
Duration : 51 min 49 s
Bit rate : 11.5 Mb/s
Width : 3 840 pixels
Height : 2 160 pixels
Display aspect ratio : 16:9
Frame rate mode : Constant
Frame rate : 23.976 (24000/1001) FPS
Color space : YUV
Chroma subsampling : 4:2:0
Bit depth : 10 bits
Bits/(Pixel*Frame) : 0.058
Stream size : 4.17 GiB (98%)
Default : Yes
Forced : No

Audio
ID : 2
Format : E-AC-3
Format/Info : Enhanced Audio Coding 3
Format settings, Endianness : Big
Codec ID : A_EAC3
Duration : 51 min 49 s
Bit rate mode : Constant
Bit rate : 256 kb/s
Channel(s) : 6 channels
Channel positions : Front: L C R, Side: L R, LFE
Sampling rate : 48.0 kHz
Frame rate : 187.500 FPS (256 SPF)
Compression mode : Lossy
Stream size : 94.9 MiB (2%)
Title : English
Language : English
Service kind : Complete Main
Default : Yes
Forced : No

Text #1
ID : 3
Format : UTF-8
Codec ID : S_TEXT/UTF8
Codec ID/Info : UTF-8 Plain Text
Duration : 51 min 42 s
Bit rate : 83 b/s
Count of elements : 961
Stream size : 31.5 KiB (0%)
Title : English (SDH)
Language : English
Default : No
Forced : No

Text #2
ID : 4
Format : UTF-8
Codec ID : S_TEXT/UTF8
Codec ID/Info : UTF-8 Plain Text
Duration : 49 min 50 s
Bit rate : 83 b/s
Count of elements : 877
Stream size : 30.4 KiB (0%)
Title : Spanish
Language : Spanish
Default : No
Forced : No





The Great S01E04


The Great S01E04


The Great S01E04


The Great S01E04


The Great S01E04